erotic scan 淫行 GOLDEN BEST 肉体派・沢村剛

CategoryAsian
Download
You need to Login or Signup first.
DescriptionBuilt Asian men get erotic and intimate
General
Format                        : Windows Media
File size                      : 1.73 GiB
Duration                      : 3h 0mn
Overall bit rate mode          : Constant
Overall bit rate              : 1 377 Kbps
Maximum Overall bit rate      : 1 515 Kbps
Encoded date                  : UTC 2014-05-29 16:51:02.288

Video
ID                            : 2
Format                        : VC-1
Format profile                : Advanced@L1
Codec ID                      : WVC1
Codec ID/Hint                  : Microsoft
Description of the codec      : VC-1 - VC-1 Advanced Profile
Duration                      : 3h 0mn
Bit rate mode                  : Constant
Bit rate                      : 1 468 Kbps
Width                          : 640 pixels
Height                        : 360 pixels
Display aspect ratio          : 16:9
Frame rate                    : 30.000 fps
Color space                    : YUV
Chroma subsampling            : 4:2:0
Bit depth                      : 8 bits
Scan type                      : Progressive
Compression mode              : Lossy
Bits/(Pixel*Frame)            : 0.212
Stream size                    : 1.85 GiB
Language                      : Chinese (TW)

Audio
ID                            : 1
Format                        : WMA
Format profile                : Pro
Codec ID                      : 162
Codec ID/Info                  : Windows Media Audio
Description of the codec      : Windows Media Audio 10 Professional -  32 kbps, 32 kHz, 2 channel 16 bit 1-pass CBR
Duration                      : 3h 0mn
Bit rate mode                  : Constant
Bit rate                      : 32.0 Kbps
Channel(s)                    : 2 channels
Sampling rate                  : 32.0 KHz
Bit depth                      : 16 bits
Stream size                    : 41.3 MiB (2%)

Added2015-10-24 03:48:08
Size1.73 GB (1,861,774,406 bytes)
Views17
Num files1 files
Pictures