Taken down by DMCA request

Blake mason - Pack 1

CategoryBareback
Download
You need to Login or Signup first.
DescriptionSample Stats:

Format                                  : MPEG-4
Format profile                          : Base Media / Version 2
Codec ID                                : mp42
File size                                : 648 MiB
Duration                                : 18mn 45s
Overall bit rate mode                    : Variable
Overall bit rate                        : 4 828 Kbps
Encoded date                            : UTC 2009-11-19 18:19:21
Tagged date                              : UTC 2009-11-20 22:05:55
Writing application                      : Sorenson Squeeze 5.0

Video
ID                                      : 2
Format                                  : MPEG-4 Visual
Format profile                          : Main@L4
Format settings, BVOP                    : Yes
Format settings, QPel                    : No
Format settings, GMC                    : No warppoints
Format settings, Matrix                  : Default (H.263)
Codec ID                                : 20
Duration                                : 18mn 45s
Bit rate mode                            : Variable
Bit rate                                : 4 567 Kbps
Nominal bit rate                        : 752 Kbps
Maximum bit rate                        : 12.9 Mbps
Width                                    : 1 280 pixels
Height                                  : 720 pixels
Display aspect ratio                    : 16:9
Frame rate mode                          : Constant
Frame rate                              : 25.000 fps
Color space                              : YUV
Bit depth                                : 8 bits
Scan type                                : Progressive
Compression mode                        : Lossy
Bits/(Pixel*Frame)                      : 0.198
Stream size                              : 613 MiB (95%)
Encoded date                            : UTC 2009-11-19 18:19:21
Tagged date                              : UTC 2009-11-19 18:19:21

Audio
ID                                      : 1
Format                                  : AAC
Format/Info                              : Advanced Audio Codec
Format profile                          : LC
Codec ID                                : 40
Duration                                : 18mn 45s
Bit rate mode                            : Variable
Bit rate                                : 256 Kbps
Channel(s)                              : 2 channels
Channel positions                        : Front: L R
Sampling rate                            : 48.0 KHz
Compression mode                        : Lossy
Stream size                              : 34.4 MiB (5%)
Encoded date                            : UTC 2009-11-19 18:19:21
Tagged date                              : UTC 2009-11-19 18:19:21

List of files:1) CUM PARADE 2) THE SUPER FUCK 3) SEAN H 4)KAI AND TJ 5)JUSTIN D 6)BRADLEY AND IAN 7)DAN J 8)DOMINIC AND JED 9)DOMINIC D 10)DAN J AND DYLAN 10) WILLIAM B 11)KYLE C AND LUKE 12)CLAYTON K 13)ADAM AND AJ 14)DALE.


Added2014-06-02 05:39:16
Size10.27 GB (11,032,664,962 bytes)
Views2
Num files15 files
Pictures