♺ Handsome Chubby Old Man Asian

CategoryChubbies
Download
You need to Login or Signup first.
DescriptionOriginal upload: 2012-10-06 |
Very sexy old man. He from Japan. and today, he suck with two friend.
I like and I want to suck Him with my mouth. Love old man!
General
Complete name                            : Handsome Chubby Old Man Asian.avi
Format                                  : AVI
Format/Info                              : Audio Video Interleave
File size                                : 1.00 GiB
Duration                                : 1h 7mn
Overall bit rate                        : 2 124 Kbps
Writing library                          : Boilsoft AVI tool build 1/release

Video
ID                                      : 0
Format                                  : MPEG-4 Visual
Format settings, BVOP                    : 1
Format settings, QPel                    : No
Format settings, GMC                    : No warppoints
Format settings, Matrix                  : Default (H.263)
Muxing mode                              : Packed bitstream
Codec ID                                : DX50
Codec ID/Hint                            : DivX 5
Duration                                : 1h 7mn
Bit rate                                : 1 953 Kbps
Width                                    : 720 pixels
Height                                  : 480 pixels
Display aspect ratio                    : 3:2
Frame rate                              : 29.970 fps
Standard                                : NTSC
Color space                              : YUV
Chroma subsampling                      : 4:2:0
Bit depth                                : 8 bits
Scan type                                : Progressive
Compression mode                        : Lossy
Bits/(Pixel*Frame)                      : 0.189
Stream size                              : 943 MiB (92%)
Writing library                          : DivX 1647

Audio
ID                                      : 1
Format                                  : MPEG Audio
Format version                          : Version 1
Format profile                          : Layer 3
Codec ID                                : 55
Codec ID/Hint                            : MP3
Duration                                : 1h 7mn
Bit rate mode                            : Constant
Bit rate                                : 160 Kbps
Channel(s)                              : 2 channels
Sampling rate                            : 48.0 KHz
Compression mode                        : Lossy
Delay relative to video                  : 15ms
Stream size                              : 77.2 MiB (8%)
Alignment                                : Split accross interleaves
Interleave, duration                    : 33 ms (1.00 video frame)
Interleave, preload duration            : 500 ms
Writing library                          : LAME3.97


Added2015-05-26 10:49:05
Size1.00 GB (1,075,323,194 bytes)
Views596
Num files1 files
Pictures