[beast] Lust Hard (激感) [BST266]

CategoryAsian
Download
You need to Login or Signup first.
DescriptionGeneral
Complete name                  : F:[beast] Lust Hard (激感) [BST266].wmv
Format                        : Windows Media
File size                      : 1 000 MiB
Duration                      : 1h 55mn
Overall bit rate mode          : Constant
Overall bit rate              : 1 209 Kbps
Maximum Overall bit rate      : 1 515 Kbps
Encoded date                  : UTC 2016-06-30 17:11:00.360

Video
ID                            : 2
Format                        : VC-1
Format profile                : Advanced@L1
Codec ID                      : WVC1
Codec ID/Hint                  : Microsoft
Description of the codec      : VC-1 - VC-1 Advanced Profile
Duration                      : 1h 55mn
Bit rate mode                  : Constant
Bit rate                      : 1 468 Kbps
Width                          : 640 pixels
Height                        : 360 pixels
Display aspect ratio          : 16:9
Frame rate                    : 30.000 fps
Original frame rate            : 15.000 fps
Color space                    : YUV
Chroma subsampling            : 4:2:0
Bit depth                      : 8 bits
Scan type                      : Progressive
Compression mode              : Lossy
Bits/(Pixel*Frame)            : 0.212
Stream size                    : 1.19 GiB
Language                      : Chinese (TW)

Audio
ID                            : 1
Format                        : WMA
Format profile                : Pro
Codec ID                      : 162
Codec ID/Info                  : Windows Media Audio
Description of the codec      : Windows Media Audio 10 Professional -  32 kbps, 32 kHz, 2 channel 16 bit 1-pass CBR
Duration                      : 1h 55mn
Bit rate mode                  : Constant
Bit rate                      : 32.0 Kbps
Channel(s)                    : 2 channels
Sampling rate                  : 32.0 KHz
Bit depth                      : 16 bits
Stream size                    : 26.5 MiB (3%)
Language                      : Chinese (TW)

Added2016-07-16 13:36:28
Size0.98 GB (1,048,743,116 bytes)
Views145
Num files1 files
Pictures