4 Black Guys - Taggaz

CategoryBlack
Download
You need to Login or Signup first.
Description4 Black Guys - Taggaz
      Format : AVI
      Format/Info : Audio Video Interleave
      File size : 532 MiB
      Duration : 45mn 18s
      Overall bit rate : 1 640 Kbps
      Writing application : MEncoder SVN-r30881(20100311-gcc4.3.3)
      Writing library : MPlayer
  Video #0
      ID : 0
      Format : MPEG-4 Visual
      Format profile : Advanced Simple@L5
      Format settings, BVOP : 2
      Format settings, QPel : No
      Format settings, GMC : No warppoints
      Format settings, Matrix : Default (H.263)
      Codec ID : XVID
      Codec ID/Hint : XviD
      Duration : 45mn 17s
      Bit rate : 1 500 Kbps
      Width : 720 pixels
      Height : 480 pixels
      Display aspect ratio : 3:2
      Frame rate : 29.000 fps
      Standard : NTSC
      Color space : YUV
      Chroma subsampling : 4:2:0
      Bit depth : 8 bits
      Scan type : Progressive
      Compression mode : Lossy
      Bits/(Pixel*Frame) : 0.150
      Stream size : 486 MiB (91%)
      Writing library : XviD 1.2.1 (UTC 2008-12-04)
  Audio #1
      ID : 1
      Format : MPEG Audio
      Format version : Version 1
      Format profile : Layer 3
      Mode : Joint stereo
      Mode extension : MS Stereo
      Codec ID : 55
      Codec ID/Hint : MP3
      Duration : 45mn 18s
      Bit rate mode : Constant
      Bit rate : 128 Kbps
      Channel(s) : 2 channels
      Sampling rate : 44.1 KHz
      Compression mode : Lossy
      Delay relative to video : 35ms
      Stream size : 41.5 MiB (8%)
      Alignment : Aligned on interleaves
      Interleave, duration : 26 ms (0.76 video frame)
      Interleave, preload duration : 522 ms
Added2014-09-13 12:25:50
Size531.54 MB (557,363,918 bytes)
Views0
Num files1 files
Pictures