Safados net - Surubão Mágico - 11 latino men orgy

CategoryGroup-Sex
Download
You need to Login or Signup first.
DescriptionSurubão Mágico
11 latino men orgy
Mais de dez homens fodendo loucamente e com tesão lá no alto

  Metadata:
    major_brand    : mp42
    minor_version  : 512
    compatible_brands: isomiso2avc1mp41
    creation_time  : 2016-07-30 23:23:40
    encoder        : HandBrake 0.10.5 2016021100
  Duration: 00:27:18.73, start: 0.000000, bitrate: 1819 kb/s
    Stream #0:0(und): Video: h264 (High) (avc1 / 0x31637661), yuv420p(tv, smpte170m), 1024x576 [SAR 1:1 DAR 16:9], 1718 kb/s, 23.98 fps, 47.83 tbr, 90k tbn, 180k tbc (default)
    Metadata:
      creation_time  : 2016-07-30 23:23:40
      handler_name    : VideoHandler
    Stream #0:1(und): Audio: mp3 (mp4a / 0x6134706D), 44100 Hz, stereo, s16p, 95 kb/s (default)
    Metadata:
      creation_time  : 2016-07-30 23:23:40
      handler_name    : Stereo
Added2016-07-31 02:04:08
Size358.11 MB (375,503,443 bytes)
Views189
Num files25 files
Pictures