♺ Private Boy Movie - Jae and Oei

CategoryAsian
Download
You need to Login or Signup first.
DescriptionOriginal upload: 2010-03-07 |
"Cute Asian (Thai) boy Oei get's a rough time with horny Jae fucking him bareback with his thick cock. One day Oei was playing with himself on the bed. Jae "accidentally" dropped by and could not resist helping out... playing with each others hard cocks, and licking that smooth asian ass. Jae has a thick hard cock and Oei has a nice little ass. He got it all bareback, soft and hard all together. Finally Jae squirted his cum over Oei's open hole and cumfucked him."
(Liner notes from www.privateboymovie.com, with minor editing)

Personal Note:
I always enjoy the occasions when the videos from PrivateBoyMovie.com leave the white-guy "cameraman" out of the scene, and allow two Thai boys to mix it up together... The result is a pretty damn hot video, considering that this was shot in high resolution, with decent equipment!

That being said, you can STILL see the (what to ME seems disrespectful and an unsettlingly) odd fetish of PrivateBoyVideo.com productions, which is video material resembling a medical rectal examination (such as fingers (or medial instruments!) inserted, stretching, stretching, with EXTREME open anal closeups... I'm sorry, I cringe a bit at this; maybe it's just me, being too sensitive or something. This is certainly the "cameraman's" 'cup of tea' and maybe others share this fetish, and I'm really trying NOT to be judgemental, about this, and trying to remain open-minded.

But beyond this issue, (of mine?) I think this is a GREAT bareback Thai boy video. Enjoy!

I converted this from WMF format to an optimized Xvid (.avi) format, with variable Video compression bit rates, taking care to preserve and enhance the video data with the best integrity possible. I boosted the chroma and the sharpness just a little bit. I set a bit-rate to achieve a Gspot Qf (Quality Factor) of .222 for optimum picture quality at minimum file size.

Naturally, if you appreciate this video, and can afford to grant any Bonus Points, to help me balance my upload / download ratio, I'd be extremely grateful. Thank You!
Pawpcorn

--------------------------------
Multimedia Analysis of:  [PrivateBoyMovie] Jae and Oei.avi

General:
Complete name : [PrivateBoyMovie] Jae and Oei.avi
Format : AVI
Format/Info : Audio Video Interleave
File size : 525 MiB
Duration : 34mn 22s
Overall bit rate : 2 136 Kbps
Director : created.with.SUPER(C).v2010.bld.37
Writing application : VirtualDubMod 1.5.10.2 (build 2542/release)
Writing library : VirtualDubMod build 2542/release

Video  ID : 0
Format : MPEG-4 Visual
Format profile : Advanced Simple@L5
Format settings, BVOP : Yes
Format settings, QPel : No
Format settings, GMC : No warppoints
Format settings, Matrix : Default (MPEG)
Muxing mode : Packed bitstream
Codec ID : XVID
Codec ID/Hint : XviD
Duration : 34mn 22s
Bit rate : 1 998 Kbps
Width : 800 pixels
Height : 450 pixels
Display aspect ratio : 16:9
Frame rate : 25.000 fps
Resolution : 8 bits
Colorimetry : 4:2:0
Scan type : Progressive
Bits/(Pixel*Frame) : 0.222
Stream size : 491 MiB (94%)
Writing library : XviD 1.2.1 (UTC 2008-12-04)

Audio  ID : 1
Format : MPEG Audio
Format version : Version 1
Format profile : Layer 3
Format_Settings_Mode : Joint stereo / MS Stereo
Codec ID : 55
Codec ID/Hint : MP3
Duration : 34mn 22s
Bit rate mode : Constant
Bit rate : 128 Kbps
Channel(s) : 2 channels
Sampling rate : 48.0 KHz
Stream size : 31.5 MiB (6%)
Alignment : Aligned on interleaves
Interleave, duration : 40 ms (1.00 video frame)
Interleave, preload duration : 504 ms
Added2014-09-03 09:02:06
Size525.04 MB (550,549,504 bytes)
Views3019
Num files1 files
Pictures