Taken down by DMCA request

Butch Dixon - Dolan Wolf and Kris Irons

CategoryAnal
Download
You need to Login or Signup first.
Description2 leather hunks fuck

General
Complete name                  : Butch Dixon - Dolan Wolf & Kris Irons.mp4
Format                        : MPEG-4
Format profile                : Base Media / Version 2
Codec ID                      : mp42 (mp42/isom/avc1)
File size                      : 865 MiB
Duration                      : 23 min 1 s
Overall bit rate mode          : Variable
Overall bit rate              : 5 250 kb/s
Track name/Position            : 1
Encoded date                  : UTC 2014-06-01 05:23:26
Tagged date                    : UTC 2014-06-02 05:23:31
Writing application            : Sorenson Squeeze

Video
ID                            : 2
Format                        : AVC
Format/Info                    : Advanced Video Codec
Format profile                : High@L3.2
Format settings, CABAC        : Yes
Format settings, ReFrames      : 3 frames
Codec ID                      : avc1
Codec ID/Info                  : Advanced Video Coding
Duration                      : 23 min 1 s
Bit rate mode                  : Variable
Bit rate                      : 4 990 kb/s
Maximum bit rate              : 8 000 kb/s
Width                          : 1 280 pixels
Height                        : 720 pixels
Display aspect ratio          : 16:9
Frame rate mode                : Variable
Frame rate                    : 29.970 (30000/1001) FPS
Minimum frame rate            : 29.970 FPS
Maximum frame rate            : 30.000 FPS
Standard                      : NTSC
Color space                    : YUV
Chroma subsampling            : 4:2:0
Bit depth                      : 8 bits
Scan type                      : Progressive
Bits/(Pixel*Frame)            : 0.181
Stream size                    : 822 MiB (95%)
Encoded date                  : UTC 2014-06-01 05:23:26
Tagged date                    : UTC 2014-06-01 05:23:26
Color range                    : Limited
Color primaries                : BT.709
Transfer characteristics      : BT.709
Matrix coefficients            : BT.709

Audio
ID                            : 1
Format                        : AAC
Format/Info                    : Advanced Audio Codec
Format profile                : LC
Codec ID                      : 40
Duration                      : 23 min 1 s
Bit rate mode                  : Constant
Bit rate                      : 256 kb/s
Channel(s)                    : 2 channels
Channel positions              : Front: L R
Sampling rate                  : 44.1 kHz
Frame rate                    : 43.066 FPS (1024 spf)
Compression mode              : Lossy
Stream size                    : 42.2 MiB (5%)
Encoded date                  : UTC 2014-06-01 05:23:26
Tagged date                    : UTC 2014-06-01 05:23:26


Added2017-07-13 19:28:06
Size864.94 MB (906,960,044 bytes)
Views46
Num files1 files
Pictures