inside 0092 - イカニモ野郎をガッつん、ガッつん掘って、掘って掘りまくり。

CategoryAsian
Download
You need to Login or Signup first.
DescriptionGeneral
Complete name                  : F:[hunk-ch.com] inside 0092 - イカニモ野郎をガッつん、ガッつん掘って、掘って掘りまくり。.wmv
Format                        : Windows Media
File size                      : 370 MiB
Duration                      : 20 min
Overall bit rate mode          : Constant
Overall bit rate              : 2 527 kb/s
Maximum Overall bit rate      : 3 026 kb/s
Encoded date                  : UTC 2016-04-07 09:02:48.903

Video
ID                            : 2
Format                        : VC-1
Format profile                : Advanced@L2
Codec ID                      : WVC1
Codec ID/Hint                  : Microsoft
Description of the codec      : VC-1 - VC-1 Advanced Profile
Duration                      : 20 min
Bit rate mode                  : Constant
Bit rate                      : 2 968 kb/s
Width                          : 1 280 pixels
Height                        : 720 pixels
Display aspect ratio          : 16:9
Frame rate mode                : Variable
Frame rate                    : 15.000 FPS
Nominal frame rate            : 30.000 FPS
Color space                    : YUV
Chroma subsampling            : 4:2:0
Bit depth                      : 8 bits
Scan type                      : Progressive
Compression mode              : Lossy
Bits/(Pixel*Frame)            : 0.215
Stream size                    : 435 MiB
Language                      : Chinese (TW)

Audio
ID                            : 1
Format                        : WMA
Format profile                : Pro
Codec ID                      : 162
Codec ID/Info                  : Windows Media Audio
Description of the codec      : Windows Media Audio 10 Professional -  32 kbps, 32 kHz, 2 channel 16 bit 1-pass CBR
Duration                      : 20 min
Bit rate mode                  : Constant
Bit rate                      : 32.0 kb/s
Channel(s)                    : 2 channels
Sampling rate                  : 32.0 kHz
Bit depth                      : 16 bits
Stream size                    : 4.69 MiB (1%)
Language                      : Chinese (TW)

Added2016-07-26 12:12:41
Size370.30 MB (388,284,866 bytes)
Views157
Num files1 files
Pictures