♺ Enigmatic Boys - Be My Boyfriend 4 - Remastered - 720p

CategoryBareback
Download
You need to Login or Signup first.
DescriptionOriginal upload: 2013-09-17 |
BONUS VIDEO INCLUDED!!! Slo-Mo Cum Scene!!!

Two lovely Russian boys, Misha and Gary, from that enigmatic studio, EnigmaticBoys.com. Misha gets the pleasure of sucking the lovely plum-sized head of Gary's cock for a long extended time, and gets rewarded by being fucked (and it looks like a TIGHT FIT!)... then bathed in cum, as Gary climaxes all over his smooth chest and tummy, then rubs it in with that cherry-red plum-headed cock of his... Check out Gary's climax, in slow motion, in the Bonus Video I've created for you!

The dictionary defines "enigmatic" as:
en·ig·mat·ic; enig'matik, adjective, difficult to interpret or understand; mysterious; mysterious, inscrutable, puzzling, mystifying, baffling, perplexing, impenetrable, unfathomable....

WELL!! There's nothing unfathomable about these boys... they're simply drop-dead gorgeous, young, horny, and love having sex!!!  Young, Hung, and Full of Cum!

-------------------Personal / Technical Notes----------------------
Ok, I'll admit it, I've gotten hooked on the EnigmaticBoys.com studio... Don't know why I hadn't discovered it up to now, but probably because their earlier productions tended to be of lower quality than some of the competition... and clearly amateur.

But NOW, I think that's starting to change, and the latest videos are in high definition, shot beautifully, and edited skillfully. The boys are still clearly amateur, but I'm starting to think that's kind of an attractive thing, to me, anyway, after watching the professional models of the big studios hammering away, somewhat repetitively, this past year.

There's just enough technical flaw and defect to make them attractive to me, as a challenge to remaster.  This particular video was shot with some red lighting, which tends to "throw things off", technically speaking, but I think I was able to resolve most issues, and the result looks pretty terrific IMHO.

Remastered: White Balance restored (Red reduced 2%, Blue and Green added 1%) Chroma reduced (20%!) and Image Intensity boosted 4%, with minor Sharpening added. Lovely boys looking lovely again.

Enjoy!
Pawpcorn
==========================================================
Complete name : Enigmatic Boys - Be My Boyfriend 4 - Misha & Gary - Color Corrected.avi
Format : AVI
Format/Info : Audio Video Interleave
File size : 567 MiB
Duration : 14mn 55s
Overall bit rate : 5 312 Kbps
Writing library : VirtualDub build 32839/release

[Video]
Format : MPEG-4 Visual
Format profile : Advanced Simple@L5
Format settings, BVOP : 2
Format settings, QPel : No
Format settings, GMC : No warppoints
Format settings, Matrix : Default (MPEG)
Muxing mode : Packed bitstream
Codec ID : XVID
Codec ID/Hint : XviD
Duration : 14mn 55s
Bit rate : 5 174 Kbps
Width : 1 280 pixels
Height : 720 pixels
Display aspect ratio : 16:9
Frame rate : 25.000 fps
Color space : YUV
Chroma subsampling : 4:2:0
Bit depth : 8 bits
Scan type : Progressive
Compression mode : Lossy
Bits/(Pixel*Frame) : 0.225
Stream size : 552 MiB (97%)
Writing library : XviD 64

[Audio] ID : 1
Format : MPEG Audio
Format version : Version 1
Format profile : Layer 3
Mode : Joint stereo
Codec ID : 55
Codec ID/Hint : MP3
Duration : 14mn 55s
Bit rate mode : Constant
Bit rate : 128 Kbps
Channel(s) : 2 channels
Sampling rate : 48.0 KHz
Compression mode : Lossy
Stream size : 13.7 MiB (2%)
Alignment : Split accross interleaves
Interleave, duration : 40 ms (1.00 video frame)
Interleave, preload duration : 500 ms

Added2015-04-10 06:23:16
Size628.44 MB (658,965,277 bytes)
Views35
Num files81 files
Pictures