Bad boys like it big

CategoryBareback
Download
You need to Login or Signup first.
DescriptionBad Boys Like It Big
Jeremy Roddick & Bobby Long
Bad boy Bobby Long wants to come clean. Even though he considers himself straight, he loves to get it up the ass. Fucking a women doesn't come close to the sensation of getting fucked by a man, he said, and that alone is enough to do gay porn. This bad yet adorable boy took some precautions: he had never been fucked with a dick as big as mine, and I would have to be very careful with him. So I was happy to oblige... for the first few seconds.

His body is smooth and firm, his ass small and tight. It took my tongue and my dick beautifully, and even though he was a bit resistant at first, he went wild and no pounding was hard enough for him.

His passionate sex drive will charm you!

-============================¬
¦        Look at the first comment!                          ¦
L============================-
-------------------------------------------------------------------------------------------------
-Technical information:                                                                        -
-General                  -
-Complete name                            : full.wmv                                            -
-Format                                  : Windows Media -
-File size                                : 202 MiB -
-Duration                                : 19mn 0s -
-Overall bit rate                        : 1 489 Kbps -
-Maximum Overall bit rate                : 1 491 Kbps -
- -
-Video -
-ID                                      : 2 -
-Format                                  : WMV1 -
-Codec ID                                : WMV1 -
-Codec ID/Info                            : Windows Media Video 7 -
-Description of the codec                : Windows Media Video V7        -    -
-Duration                                : 19mn 0s -
-Bit rate                                : 1 405 Kbps -
-Width                                    : 640 pixels -
-Height                                  : 360 pixels -
-Display aspect ratio                    : 16:9 -
-Frame rate                              : 15.000 fps -
-Bit depth                                : 8 bits -
-Bits/(Pixel*Frame)                      : 0.407 -
-Stream size                              : 191 MiB (94%) -
- -
-Audio -
-ID                                      : 1 -
-Format                                  : WMA -
-Format version                          : Version 2 -
-Codec ID                                : 161 -
-Codec ID/Info                            : Windows Media Audio -
-Description of the codec                : Windows Media Audio V7 -  16 kbps, 22 kHz, mono  -
-Duration                                : 19mn 0s -
-Bit rate                                : 16.0 Kbps -
-Channel(s)                              : 1 channel -
-Sampling rate                            : 22.05 KHz -
-Bit depth                                : 16 bits -
-Stream size                              : 2.18 MiB (1%) -
- -
-------------------------------------------------------------------------------------------------

Added2014-08-12 09:41:39
Size202.48 MB (212,319,283 bytes)
Views1
Num files1 files
Pictures