♺ eros -ERS31 - Ordinary Day of a Sex Object

CategoryAsian
Download
You need to Login or Signup first.
DescriptionOriginal upload: 2012-11-19 |

Original Title: 肉便器の日常
Release Date: 2011/02/19
hxxp://ko-video.com/pc/detail/KERO31_DVD

General
Format                                  : AVI
Format/Info                              : Audio Video Interleave
File size                                : 1.61 GiB
Duration                                : 1h 51mn
Overall bit rate                        : 2 063 Kbps

Video
ID                                      : 0
Format                                  : MPEG-4 Visual
Format settings, BVOP                    : 1
Format settings, QPel                    : No
Format settings, GMC                    : No warppoints
Format settings, Matrix                  : Default (H.263)
Muxing mode                              : Packed bitstream
Codec ID                                : DX50
Codec ID/Hint                            : DivX 5
Duration                                : 1h 51mn
Bit rate                                : 1 995 Kbps
Width                                    : 720 pixels
Height                                  : 480 pixels
Display aspect ratio                    : 4:3
Frame rate                              : 29.970 fps
Standard                                : NTSC
Color space                              : YUV
Chroma subsampling                      : 4:2:0
Bit depth                                : 8 bits
Scan type                                : Progressive
Compression mode                        : Lossy
Bits/(Pixel*Frame)                      : 0.193
Stream size                              : 1.55 GiB (97%)
Writing library                          : DivX 6.8.5 (UTC 2009-08-20)

Audio
ID                                      : 1
Format                                  : MPEG Audio
Format version                          : Version 2
Format profile                          : Layer 3
Mode                                    : Joint stereo
Mode extension                          : Intensity Stereo
Codec ID                                : 55
Codec ID/Hint                            : MP3
Duration                                : 1h 51mn
Bit rate mode                            : Constant
Bit rate                                : 56.0 Kbps
Channel(s)                              : 2 channels
Sampling rate                            : 24.0 KHz
Compression mode                        : Lossy
Stream size                              : 44.7 MiB (3%)
Alignment                                : Split accross interleaves
Interleave, duration                    : 33 ms (1.00 video frame)
Interleave, preload duration            : 20 ms
Added2015-01-08 22:09:05
Size1.61 GB (1,725,582,156 bytes)
Views938
Num files1 files
Pictures