♺ San Diego Boy - Latin Bareback Cum Posse (avi)

CategoryBareback
Download
You need to Login or Signup first.
DescriptionOriginal upload: 2010-03-09 |
These 9 gorgeous Latin studs just keep fucking, flopping, and fucking their raw cocks deeper and deeper inside each other until they finish off in a bath of their own shooting cum!
---------------------------------
Personal Note: This video is NOT a rip from DVD, like most of my projects (unfortunately! I wish I DID have the DVD files!)

But the video is just so damned hot (giving OTB a run for the money!) with a GREAT three-way sandwich fuck in the fourth and final scene, that I just had to share it with you. I THINK some of the models that do work for OTB appear in SDB movies.

Overall, my boyfriend and I give this video a "Two Cocks Up!" Enjoy!

If you enjoy this contribution, and can afford to award any bonus points, I'd be really grateful... I'm usually downloading DVDs, to convert to high quality Xvid videos, (often color corrected and sharpened), and the nature of this is that my upload/download ratio often suffers. Being able to trade in some bonus points for upload credit is a big help. Thanks!

The source for this video was a reasonably good quality .mp4 file... which, by nature, WON'T play on most DVD players, but manages to pack a LOT of data into a reasonably sized file. I converted this to an Xvid .avi file, utilizing the two pass mode, which looks at the amount of picture detail, frame by frame, over the entire movie during the first pass, and on the second pass, encodes the video, using a variable amount of data bits, depending on the first pass information. Then MP3 audio was added in, for a reasonable file size. I did NOT color correct this video, but I sharpened it a little bit. This video ended up with a Qf (Quality factor) of .234, for pretty good picture quality, overall. I apologize for the occasional solarization in some scenes... this was in the original file.
--------------------------------
Title: Latin Bareback Cum Posse
Year Released: 2008
Duration: 1 hour, 34 minutes
Locations: Brazil, Peru, Argentina, Chile, Venezuela, Colombia
Studio:  San Diego Boy
Cast:  Mateo, Ethan, Darwin, Brian, Nicolas, Willy, Alfonso, Dylan, Brando
--------------------------------
From the press notes, courtesy of San Diego Boy:
"Ethan and Brando get right down to business, starting off with kissing, sucking and rimming. Ethan is first to get fucked, then its Brando's turn. These two just keep fucking, flopping, and fucking their raw cocks deeper and deeper inside each other. They finish off in a bath of their own shooting cum.

Willy and Nicolas are outside playing with their pet kitten when it wonders off, so their attention turns to their sexual desires as their lips move closer and closer and their cocks begin to bulge in their shorts. Lots of fingering and ass play leads to lots of bare cock fucking and flip-flopping.

Brian and Alfonso are out back cleaning up the yard as passionate kissing leads to sucking and rimming. These two smooth Latin studs drop to the ground as Brian slowly sits his ass down on Alfonso's bare cock and takes it for a ride. Alfonso later gets a hot creamy cum facial and swallows the creamy goo that lands in his mouth.

Mateo is our newest model and boy is he hot -- check out his body. You can really see that he loves sex and can't get enough of it. He and Darwin, our baby face cutie, are lounging out by the pool, kissing, licking and stroking each others hard cocks, hitting it off, when Dylan happens along and joins the fun. Plenty of threeway action follows as Mateo gives and takes raw cocks up his ass, and shoves his bare cock up Darwin and Dylan's asses. These 3 smooth boys fuck and suck each other until climax."
--------------------------------
Keywords
Age: Barely Legal/Twinks/Young Meat,  Age: College Freshmen to Late 20s,  All Hispanic/Latino Cast,  Body Types: Lean/Slim/Wiry,  Body/Chest Hair: None (Hairless/Shaved/Smooth),  Butt Play: Finger Fucking/Probing,  Cast's Looks: Adorable/Cute,  Cock Sizes: Average/Above Average,  Condomless Sex: Barebacking,  Cumshots: Facial/To the Face,  Cumshots: Oral/Swallowing,  Deep/Manly Kissing,  Facial Hair: None (Clean Shaven),  Jacuzzi/Poolside Sex,  Men in/of South America,  Outdoor Sex,  Rimming (Ass Eating),  Threesomes/Threeways
--------------------------------
Genres
Bareback,  Ethnic,  Foreign/International Cast
--------------------------------
Multimedia Analysis of:  [SanDiegoBoy] Latin Bareback Cum Posse.avi

General:
Complete name : [SanDiegoBoy] Latin Bareback Cum Posse.avi
Format : AVI
Format/Info : Audio Video Interleave
File size : 1.56 GiB
Duration : 1h 34mn
Overall bit rate : 2 371 Kbps
Director : created.with.SUPER(C).v2010.bld.37
Writing application : VirtualDubMod 1.5.10.2 (build 2542/release)
Writing library : VirtualDubMod build 2542/release

Video  ID : 0
Format : MPEG-4 Visual
Format profile : Advanced Simple@L5
Format settings, BVOP : Yes
Format settings, QPel : No
Format settings, GMC : No warppoints
Format settings, Matrix : Default (MPEG)
Muxing mode : Packed bitstream
Codec ID : XVID
Codec ID/Hint : XviD
Duration : 1h 34mn
Bit rate : 2 103 Kbps
Width : 720 pixels
Height : 416 pixels
Display aspect ratio : 16:9
Frame rate : 29.970 fps
Resolution : 8 bits
Colorimetry : 4:2:0
Scan type : Progressive
Bits/(Pixel*Frame) : 0.234
Stream size : 1.38 GiB (89%)
Writing library : XviD 1.2.1 (UTC 2008-12-04)

Audio  ID : 1
Format : MPEG Audio
Format version : Version 1
Format profile : Layer 3
Codec ID : 55
Codec ID/Hint : MP3
Duration : 1h 34mn
Bit rate mode : Constant
Bit rate : 256 Kbps
Channel(s) : 2 channels
Sampling rate : 48.0 KHz
Stream size : 173 MiB (11%)
Alignment : Split accross interleaves
Interleave, duration : 33 ms (1.00 video frame)
Interleave, preload duration : 500 ms
Writing library : LAME3.97

Tags: ~bareback ~latinos ~youngbloods
Added2014-08-02 02:06:05
Size1.56 GB (1,676,015,616 bytes)
Views3171
Num files1 files
Pictures