♺ Dark Alley Media - Passio - 2007 MP4

CategoryGroup-Sex
Download
You need to Login or Signup first.
DescriptionOriginal upload: 2011-10-29 |
WARNING - HIGHLY CONTROVERSIAL MATERIAL - MAY BE OFFENSIVE TO SOME : Dark Alley Media - PASSIO - MP4 FORMAT.

REVIEW:
Dark Alley Media pushes the boundaries with this one. The video is actually quite exquisite, and the cast is certainly up to par

on the hunky and sex-fiend end of things. Costumes, great videography, flogging, controversy, and hardcore sex. It�s �The Passion

of the Cock� unlike anything we�ve ever seen.

PRESS RELEASE FROM DARK ALLEY MEDIA, NEW YORK, Nov. 8, 2007 /PRNewswire:
Dark Alley Media, a New York-based gay  adult entertainment studio, is preparing to premiere Passio, director  Matthias von

Fistenberg's artistic interpretation of religious themes and stories.  "Passio depicts a selection of incidents from the life of

Jesus," said von Fistenberg. "The Latin word 'passio' means 'suffering,' and commonly it's translated into English as 'gospel.'

The original Passio texts tell the story of Jesus according to his Disciples -- one of them being Matthias. Since my name is also

Matthias, this movie is a gospel -- a Passio. A version of the story according to me."

At a time when the Pope calls gays "satanic," and the Anglican Church tears itself apart over gays and lesbians, von Fistenberg

decided to shed a different light on the subject as many filmmakers have done before.
   
"The Last Temptation of Christ explored the humanistic aspect. MelGibson proved in Passion of the Christ that the naked body,

whether suffering or not, is sexually attractive. Priest showed a gay priest Tusting after Christ on the Crucifix. All of these

are a prelude to my Passio," said von Fistenberg. "I just took it one step further: if Jesus has feelings, needs and wants aside

from the ones God supplied him, why can't he also lust?"
   
Passio also re-creates the director's interpretation of notable artworks, such as The Last Supper and Flagellatio -- both familiar

to those with religious leanings or not.
   
"From Michelangelo to Mantegna, Piero Della Francesca to Paul Gauguin,images of Jesus Christ have offended, delighted, outraged,

and inspired the devout," the director said. "For each controversial image, the sacred and profane become intermixed in new ways,

challenging viewers to rethink their own image of history, of religion, of spirituality, and of sexuality."
   
"This [Passio] is the Gospel revisited by a modern artist," said von Fistenberg. "Or, as some wish, merely a pornographer,

acquainted with the body language of the underworld."
   

DARK ALLEY MEDIA:
Dark Alley Media�s Matthias von Fistenberg, never one to shy away from controversy, is now taking on perhaps the biggest

institution of them all � Jesus Christ himself � in his latest movie, Passio. With films known for bringing a biting wit and kinky

gay sex edge to current events (including the award-winning Mutiny and political parody Gaytanamo), the notorious director has

gone back 2,000 years to re-imagine the Son of God as Dark Alley Exclusive Danny Fox, out to bring his love to all mankind.

Whether tied to the cross, causing problems for Pontius Pilate or turning the Last Supper into a Feast of Flesh, he�s sure to

inspire legions of men to kneel in worship.

AWARDS:  2008 BEST COVER for a PORN VIDEO - Gay Video Awards

2007, 120 min

Country:  US

Studio :  Dark Alley Media

Cast:  Danny Fox, Adam Faust, Brock Hatcher, Demetrius, Dimitri Santiago, Hank Dutch, Jon Matthews, Rick

Director:  Matthias von Fistenberg

Video: MPEG4 Video 560x416 29.97fps [Video]

Audio: AAC 44100Hz stereo 1411kbps [Audio]

Size:  688 Megabytes

General
Complete name                            : D:\#[Dark Alley Media] {Darkalley.COM} Passio.MP4
Format                                  : MPEG-4
Format profile                          : Base Media / Version 2
Codec ID                                : mp42
File size                                : 689 MiB
Duration                                : 1h 8mn
Overall bit rate mode                    : Variable
Overall bit rate                        : 1 399 Kbps
Encoded date                            : UTC 2009-03-17 14:22:07
Tagged date                              : UTC 2009-03-17 15:02:54

Video
ID                                      : 1
Format                                  : MPEG-4 Visual
Format profile                          : Advanced Simple@L5
Format settings, BVOP                    : Yes
Format settings, QPel                    : No
Format settings, GMC                    : No warppoints
Format settings, Matrix                  : Default (H.263)
Codec ID                                : 20
Duration                                : 1h 8mn
Bit rate mode                            : Variable
Bit rate                                : 1 311 Kbps
Maximum bit rate                        : 3 219 Kbps
Width                                    : 560 pixels
Height                                  : 416 pixels
Display aspect ratio                    : 4:3
Frame rate mode                          : Constant
Frame rate                              : 29.970 fps
Color space                              : YUV
Chroma subsampling                      : 4:2:0
Bit depth                                : 8 bits
Scan type                                : Progressive
Compression mode                        : Lossy
Bits/(Pixel*Frame)                      : 0.188
Stream size                              : 645 MiB (94%)
Writing library                          : em4v 4.1.6.5
Language                                : English
Encoded date                            : UTC 2009-03-17 14:22:07
Tagged date                              : UTC 2009-03-17 15:02:54

Audio
ID                                      : 2
Format                                  : AAC
Format/Info                              : Advanced Audio Codec
Format profile                          : LC
Codec ID                                : 40
Duration                                : 1h 8mn
Bit rate mode                            : Variable
Bit rate                                : 80.6 Kbps
Maximum bit rate                        : 115 Kbps
Channel(s)                              : 2 channels
Channel positions                        : Front: L R
Sampling rate                            : 44.1 KHz
Compression mode                        : Lossy
Stream size                              : 39.7 MiB (6%)
Language                                : English


This movie is also offered on our Tracker,
AVI format: http://tracker.gaytorrent.ru/details.php?id=15911
FLV format:  http://tracker.gaytorrent.ru/details.php?id=66157

Added2016-12-08 13:29:09
Size688.77 MB (722,232,599 bytes)
Views1847
Num files1 files
Pictures