[GayAsianTwinkz] Conan and Jayrald mp4

CategoryAsian
Download
You need to Login or Signup first.
DescriptionHunky and handsome Conan Reyes makes his gay Asian porn debut with Jayrald, our 18 year old newbie Asian twink. Conan lays back and let's Jayrald feast on him for a while with some cock sucking and ass rimming. Conan reciprocates and now the two gay Asian boys are hot and horny for some gay bareback fucking.


General
Complete name : [GayAsianTwinkz] Conan and Jayrald.mp4
Format : MPEG-4
Format profile : Base Media / Version 2
Codec ID : mp42 (mp42/mp41)
File size : 1.63 GiB
Duration : 22mn 53s
Overall bit rate mode : Variable
Overall bit rate : 10.2 Mbps
Encoded date : UTC 2014-10-19 01:46:53
Tagged date : UTC 2014-10-19 01:47:34
©TIM : 00:00:00:00
©TSC : 30000
©TSZ : 1001

Video
ID : 1
Format : AVC
Format/Info : Advanced Video Codec
Format profile : Main@L4.2
Format settings, CABAC : Yes
Format settings, ReFrames : 3 frames
Codec ID : avc1
Codec ID/Info : Advanced Video Coding
Duration : 22mn 53s
Bit rate : 9 989 Kbps
Width : 1 920 pixels
Height : 1 080 pixels
Display aspect ratio : 16:9
Frame rate mode : Variable
Frame rate : 29.970 (30000/1001) fps
Minimum frame rate : 29.970 fps
Maximum frame rate : 30.000 fps
Standard : NTSC
Color space : YUV
Chroma subsampling : 4:2:0
Bit depth : 8 bits
Scan type : Progressive
Bits/(Pixel*Frame) : 0.161
Stream size : 1.60 GiB (98%)
Language : English
Encoded date : UTC 2014-10-19 01:46:53
Tagged date : UTC 2014-10-19 01:46:53
Color range : Limited

Audio
ID : 2
Format : AAC
Format/Info : Advanced Audio Codec
Format profile : LC
Codec ID : 40
Duration : 22mn 53s
Bit rate mode : Variable
Bit rate : 192 Kbps
Maximum bit rate : 291 Kbps
Channel(s) : 2 channels
Channel positions : Front: L R
Sampling rate : 48.0 KHz
Frame rate : 46.875 fps (1024 spf)
Compression mode : Lossy
Stream size : 31.0 MiB (2%)
Language : English
Encoded date : UTC 2014-10-19 01:46:53
Tagged date : UTC 2014-10-19 01:46:53
Added2016-08-13 03:42:43
Size1.63 GB (1,749,293,860 bytes)
Views241
Num files2 files
Pictures