Men's Hell 4

CategoryBDSM
Download
You need to Login or Signup first.
Description
  General
      Complete name : E:ELTWinter GarudEOWMen's Hell 4.avi
      Format : AVI
      Format/Info : Audio Video Interleave
      File size : 201 MiB
      Duration : 39mn 45s
      Overall bit rate : 707 Kbps
  Video #0
      ID : 0
      Format : MPEG-4 Visual
      Format profile : Simple@L1
      Format settings, BVOP : No
      Format settings, QPel : No
      Format settings, GMC : No warppoints
      Format settings, Matrix : Default (H.263)
      Codec ID : DIVX
      Codec ID/Info : Project Mayo
      Codec ID/Hint : DivX 4
      Duration : 39mn 45s
      Bit rate : 598 Kbps
      Width : 480 pixels
      Height : 272 pixels
      Display aspect ratio : 16:9
      Frame rate : 24.000 fps
      Color space : YUV
      Chroma subsampling : 4:2:0
      Bit depth : 8 bits
      Scan type : Progressive
      Compression mode : Lossy
      Bits/(Pixel*Frame) : 0.191
      Stream size : 170 MiB (85%)
      Writing library : Lavc52.108.0
  Audio #1
      ID : 1
      Format : MPEG Audio
      Format version : Version 1
      Format profile : Layer 3
      Mode : Joint stereo
      Mode extension : MS Stereo
      Codec ID : 55
      Codec ID/Hint : MP3
      Duration : 39mn 44s
      Bit rate mode : Constant
      Bit rate : 96.0 Kbps
      Channel(s) : 2 channels
      Sampling rate : 44.1 KHz
      Compression mode : Lossy
      Stream size : 27.3 MiB (14%)
      Alignment : Aligned on interleaves
      Interleave, duration : 26 ms (0.63 video frame)
      Writing library : LAME3.98
Added2015-10-03 11:43:18
Size200.88 MB (210,642,358 bytes)
Views0
Num files1 files
Pictures