Shemale Japan - Rise Kaneshiro - 720p

CategoryShemale
Download
You need to Login or Signup first.
DescriptionShemale Japan - Rise's Rampant Return - 720p

Released 27th October 2014

TWENTY YEAR OLD Tokyo starlet Rise Kaneshiro flip flops in this NEW sizzling HD video!!! Rise shot to stardom back in Janaury this year when she entered the fray in a smoldering hardcore exclusive, going on to smash six awesome solo sets throughout the year. She is now back doing what she does best: sucking and fucking! Rise treats us to an awesome all rounder display, partaking in some mutual fellatio and toping her partner, before getting her tight and sexy love-hole serviced in style! Presenting the sensuous Rise Kaneshiro hardcore #2 - another ground breaker on Shemale Japan!

155 Image Picture Set Included!!!

Preview Video Included!!!

Japanese Shemale / Japanese Transsexual

http://www.shemale-japan.com/

[General] Complete name : Shemale Japan - Rise Kaneshiro.mp4
Format : MPEG-4
Format profile : Base Media / Version 2
Codec ID : mp42
File size : 926 MiB
Duration : 32mn 16s
Overall bit rate : 4 011 Kbps
Encoded date : UTC 2014-10-18 11:19:14
Tagged date : UTC 2014-10-18 11:20:01

[Video] ID : 1
Format : AVC
Format/Info : Advanced Video Codec
Format profile : Baseline@L3.1
Format settings, CABAC : No
Format settings, ReFrames : 2 frames
Format settings, GOP : M=1, N=30
Codec ID : avc1
Codec ID/Info : Advanced Video Coding
Duration : 32mn 16s
Bit rate : 3 719 Kbps
Width : 1 280 pixels
Height : 720 pixels
Display aspect ratio : 16:9
Frame rate mode : Constant
Frame rate : 29.970 fps
Color space : YUV
Chroma subsampling : 4:2:0
Bit depth : 8 bits
Scan type : Progressive
Bits/(Pixel*Frame) : 0.135
Stream size : 859 MiB (93%)
Language : English
Encoded date : UTC 2014-10-18 11:18:43
Tagged date : UTC 2014-10-18 11:20:01
Color primaries : BT.709
Transfer characteristics : BT.709
Matrix coefficients : BT.709

[Audio] ID : 2
Format : AAC
Format/Info : Advanced Audio Codec
Format profile : LC
Codec ID : 40
Duration : 32mn 16s
Source duration : 32mn 16s
Bit rate mode : Constant
Bit rate : 128 Kbps
Channel count : 2 channels
Channel positions : Front: L R
Sampling rate : 44.1 KHz
Compression mode : Lossy
Stream size : 28.9 MiB (3%)
Source stream size : 28.9 MiB (3%)
Language : English
Encoded date : UTC 2014-10-18 11:18:43
Tagged date : UTC 2014-10-18 11:20:01

Added2014-11-12 17:08:52
Size969.19 MB (1,016,270,624 bytes)
Views1
Num files164 files
Pictures