♺ [PrivateBoyMovie] Ice and Vic * Thai * Widescreen * H Q * NO MASK *

You need to Login or Signup first.
DescriptionOriginal upload: 2010-03-29 |
Thai Boys Ice and Vic, minus the White Guy, going for hot action! Sweet kissing, sucking, ass licking, deep fucking with Vic's HUGE cock, finishing off with two oversize cum loads!
Studio: www.PrivateBoyMovies.com
Year Released: guessing 2009
Duration: 34 1/2 minutes
Starring: Ice and Vic
From the Liner Notes: "I hooked Ice up with Vic for some nice action. They did not have any problem getting along and not long after, Ice was on his knees, sucking Vic's hard dick. He, of course, returned the favor, and also licked his little hole, and made it ready for his boner. Ice felt that Vic's dick was a little too big, but after awhile, he loosened up, and they really got at it. Lots of horny fucking action and juicy cum shots."
Personal Note: This is a pretty hot video (for us Asian-lovers), even though it's NOT bareback; largely for the fact that features two cute Thai guys, and the "White Guy" remains out of the picture throughout the video.

Did you know that MANY of the Thai boys that perform in these videos (i.e. "Moneyboys") are actually straight? True fact! The money earned is comparatively "good" while their looks last, compared to what they would earn working the menial jobs they are otherwise qualified to do. Since there are rather limited ways for a Thai boy, from poor rural areas, without a university degree, to earn decent money, prostitution becomes a viable option.

Unless they are clearly looking very feminine, chances are better than even that they are straight, with girlfriends, little sons and daughters, the whole nine yards. But then again, there is NOT the delineation of (what Westerners would consider) gay or straight behavior, in Thai society; supposedly "not gay" guys will often be quite happy to play with another guy, sexually, in ways Western culture would quickly label as "totally gay" without the boy feeling ANYTHING like "gay"! Quite the contrary, he will feel completely "normal" without a shred of guilt. True facts. A truly HEALTHY approach to sexuality, especially when compared to rampant American Homophobia, IMHO.

The opening scene shows a couple of empty bottles of Thai "whiskey" on the table. I'm guessing "Ice" needed some liquid courage to do the shoot with PBM veteren "Vic". Hell, I guess I'd be a little intimidated by Vic's giant cock too!!!  Anyway, this (whiskey) might have been responsible for Ice staying "soft" throughout the first portion of this video, but he DOES get it up midway, to join Vic at the end, shooting gobs of creamy Thai spunk. Outstanding!

There IS this one puzzling issue: BIG dual gobs of white stuff on Vic's condom, which appear partway through the major fucking he's giving Ice... Puzzling, in that I wonder... is that pre-cum, leaking from the condom(?) or is that Crisco? I doubt the latter, but somehow the pre-cum idea doesn't seem right either...!!! You take a look, and drop a comment here as to your best guess. I'm probably overlooking some simple explanation. I'm often unable to comprehend the obvious, looking for the complicated solution, instead. Help me here, guys!!!

This video required NO color correction. It was properly lit, color balance was flawless, direction good, great editing, with excellent crisp photography overall. Another class shoot, from the PrivateBoyMovie "studio". I DID boost the detail, a little bit, as I usually do.

And, as always, if you appreciate the work I put into creating this edited ThaiBoy video, I could really use any gift of bonus points you can afford to give.

I'm usually downloading DVDs from this great torrent site, to create the highest quality and resolution videos to share with you, converted directly from the DVD data files. But this, by nature, tends to chip away, severely, at my upload/download ratio, as you can imagine.

Freshly converted directly from the original .wmv files, using the Xvid codec in 2-pass mode, to detect motion, then utilize Variable Bit Rates for the most efficient Video Compression, achieving a uniform look of high quality, plus MP3 audio, resulting in a reasonable file size. This video has a Gspot Qf (Quality Factor) of .277 for near-DVD quality.

Multimedia Analysis of:  [PrivateBoyMovie] Ice and Vic.avi

Complete name : [PrivateBoyMovie] Ice and Vic.avi
Format : AVI
Format/Info : Audio Video Interleave
File size : 651 MiB
Duration : 34mn 33s
Overall bit rate : 2 633 Kbps
Director : created.with.SUPER(C).v2010.bld.37 / created.with.SUPER(C).v2010.bld.37
Writing application : VirtualDubMod (build 2542/release)
Writing library : VirtualDubMod build 2542/release

Video  ID : 0
Format : MPEG-4 Visual
Format profile : Advanced Simple@L5
Format settings, BVOP : Yes
Format settings, QPel : No
Format settings, GMC : No warppoints
Format settings, Matrix : Default (MPEG)
Muxing mode : Packed bitstream
Codec ID : XVID
Codec ID/Hint : XviD
Duration : 34mn 33s
Bit rate : 2 495 Kbps
Width : 800 pixels
Height : 450 pixels
Display aspect ratio : 16:9
Frame rate : 25.000 fps
Resolution : 8 bits
Colorimetry : 4:2:0
Scan type : Progressive
Bits/(Pixel*Frame) : 0.277
Stream size : 617 MiB (95%)
Writing library : XviD 1.2.1 (UTC 2008-12-04)

Audio  ID : 1
Format : MPEG Audio
Format version : Version 1
Format profile : Layer 3
Codec ID : 55
Codec ID/Hint : MP3
Duration : 34mn 33s
Bit rate mode : Constant
Bit rate : 128 Kbps
Channel(s) : 2 channels
Sampling rate : 44.1 KHz
Stream size : 31.6 MiB (5%)
Alignment : Split accross interleaves
Interleave, duration : 40 ms (1.00 video frame)
Interleave, preload duration : 500 ms
Writing library : LAME3.97

Added2015-07-22 08:07:06
Size650.63 MB (682,240,000 bytes)
Num files1 files