♺ Bottom - Todd Verow (2012)

CategoryFetish
Download
You need to Login or Signup first.
DescriptionOriginal upload: 2013-12-21 | English | subs: English hardcoded | DVD NTSC | http://www.imdb.com/title/tt1828954 |

Provocative documentary by director Todd Verow about a man, a so-called ‘cum whore’, who lives in New York and is determined to have raw sex with as many men as possible in one year, while meticulously keep count of the number of ‘loads’ he takes. The film’s protagonist has blogged about his sex life for years under the title “Confessions of a Bareback Sauna Slut - No Condoms. No Fear, No Regrets “- now it’s all there for us to see. It’s fascinating, controversial and extremely up-close!

DVD Source: Bangor Films DVD (Official)
DVD Format: NTSC / Region 1
DVD Audio: Language Mono
Program: Unknown
Menus: Untouched
Video: Untouched
Audio: Untouched
DVD extras: Untouched (N/A)

VTS_01_1.VOB

Video
Duration : 17mn 46s
Bit rate : 7 730 Kbps
Width : 720 pixels
Height : 480 pixels
Display aspect ratio : 16:9
Frame rate : 29.970 fps
Standard : NTSC
Color space : YUV
Chroma subsampling : 4:2:0
Bit depth : 8 bits
Scan type : Interlaced
Scan order : Bottom Field First
Compression mode : Lossy
Bits/(Pixel*Frame) : 0.746
Stream size : 979 MiB (96%)


Audio
Muxing mode : DVD-Video
Duration : 17mn 46s
Bit rate mode : Constant
Bit rate : 192 Kbps
Channel(s) : 2 channels
Channel positions : Front: L R
Sampling rate : 48.0 KHz
Bit depth : 16 bits
Compression mode : Lossy
Delay relative to video : -67ms
Stream size : 24.4 MiB (2%)

-----
~documentary

Added2015-12-02 08:06:08
Size4.33 GB (4,649,236,480 bytes)
Views36
Num files11 files
Pictures