♺ Clair Production - No Limits

You need to Login or Signup first.
DescriptionOriginal upload: 2010-07-09 |
What a sex party, nothing's taboo!!! Planting seed, bareback, huge dicks, 2 twins, cum EVERYWHERE, messy facials/cum gobbling... 100% pure perfect Clair Productions.
Personal Note: I've come to know that anytime I see the Clair Production label, I'm in for a treat; Handsome and horny Czech twinks and buff hunks, having ENERGIZED sex, bareback, in perfect scenic settings. "No Limits" delivers on all fronts.

This video is listed as the NUMBER ONE best selling video, on Clair Production's web site. ALL the scenes are pretty damn hot. There is one scene (four) where the skinny twink (Steve Rives (as Ladislav)) is packing an absolute MONSTER cock, and somehow manages to fit it all inside the tatooed hunk's (Ricci Hatcher (as Richy) ass, only to end up cumming a monster load, all over Richy's face. WHEW!

Director Stephane Moussu is no slouch! He's accredited as Director, Casting Director, Camera and Electrical Department, Producer, Casting Department in dozens of movies, for a multitude of production companies. You can see hxxp://www.imdb.com/name/nm2671775/ for more info!

This is a fresh edited conversion I just created from the original DVD files, deinterlaced, and sharpened slightly. The 12 hour long manual three-pass conversion was performed by first decompressing the DVD files to a whopping 215 GB to a nonencoded binary format. Next, these files were joined and edited, then analyzed, to log the amount of picture detail and movement, frame by frame. The audio was then extracted, and converted to MP3 format. Thirdly, the video is finally reencoded, using the second pass of the 2-pass mode of the Xvid codec, in Variable Bit Rate, using the detail and motion data for the most efficient variable degrees of Video Compression, in order to achieve a consistently crisp  appearance to the human eye. Lastly, the MP3 audio was merged with the video again, resulting in the most reasonable file size posible, considering the quality. This video has a Gspot Qf (Quality Factor) of .202, for near-DVD quality. Enjoy!

Any bonus points that you can afford to grant me for my efforts would be greatly appreciated! In as I'm usually downloading DVDs to convert, process, and perhaps color correct, to offer here, I struggle to maintain my UL/DL ratio; and your gift would certainly help me, in this regard. Thanks!
Title: No Limits
Studio: Clair Production
Year Released: 2008
Running Time: 2 hours
Starring:  (Credited cast)
Leo Cooper (as Leo)
Kent Drake (as Thomas)
Michael Getlin (as John)
Ricci Hatcher (as Richy)
Steve Rives (as Ladislav)
Lucky Taylor (as Lucky)
John Vulcan (as Jan)
Mark Zebro (as Marc)
Director: Stephane Moussu
Country: Czech Republic
Language: Czech
Multimedia Analysis of:  [Clair] No Limits.avi
Complete name : [Clair] No Limits.avi
Format : AVI
Format/Info : Audio Video Interleave
File size : 1.84 GiB
Duration : 1h 58mn
Overall bit rate : 2 232 Kbps
Writing application : VirtualDubMod (build 2542/release)
Writing library : VirtualDubMod build 2542/release

Video  ID : 0
Format : MPEG-4 Visual
Format profile : Advanced Simple@L5
Format settings, BVOP : Yes
Format settings, QPel : No
Format settings, GMC : No warppoints
Format settings, Matrix : Default (MPEG)
Muxing mode : Packed bitstream
Codec ID : XVID
Codec ID/Hint : XviD
Duration : 1h 58mn
Bit rate : 2 095 Kbps
Width : 720 pixels
Height : 576 pixels
Display aspect ratio : 16:9
Frame rate : 25.000 fps
Standard : PAL
Resolution : 8 bits
Colorimetry : 4:2:0
Scan type : Progressive
Bits/(Pixel*Frame) : 0.202
Stream size : 1.73 GiB (94%)
Writing library : XviD 1.2.1 (UTC 2008-12-04)

Audio  ID : 1
Format : MPEG Audio
Format version : Version 1
Format profile : Layer 3
Mode : Joint stereo
Format_Settings_ModeExtension : MS Stereo
Codec ID : 55
Codec ID/Hint : MP3
Duration : 1h 58mn
Bit rate mode : Constant
Bit rate : 128 Kbps
Channel(s) : 2 channels
Sampling rate : 44.1 KHz
Stream size : 108 MiB (6%)
Alignment : Split accross interleaves
Interleave, duration : 40 ms (1.00 video frame)
Interleave, preload duration : 500 ms

~bareback ~twinks ~hunks
Added2015-04-30 06:41:07
Size1.85 GB (1,981,539,536 bytes)
Num files3 files