Daddy and Xtasy Baby in X-Perience Xtasy

CategoryLatino
Download
You need to Login or Signup first.
DescriptionTwo handsome latino guys having bareback sex.
From BreedItRaw.com studios.

Format: QuickTime
Format/Info: Original Apple specifications
File size: 159 MiB
Duration: 25mn 33s
Overall bit rate mode: Variable
Overall bit rate: 870 Kbps
Movie name: www.BREEDITRAW.com
Encoded date: UTC 2009-09-23 19:13:48
Tagged date: UTC 2009-09-23 19:13:48
Writing library: Apple QuickTime

Video
ID: 1
Format: AVC
Format/Info: Advanced Video Codec
Format profile: Baseline@L3.2
Format settings, CABAC: No
Format settings, ReFrames: 1 frame
Format settings, GOP: M=1, N=30
Codec ID: avc1
Codec ID/Info: Advanced Video Coding
Duration: 25mn 33s
Bit rate mode: Variable
Bit rate: 801 Kbps
Width: 512 pixels
Height: 288 pixels
Display aspect ratio: 16:9
Frame rate mode: Constant
Frame rate: 29.970 fps
Standard: Component
Color space: YUV
Chroma subsampling: 4:2:0
Bit depth: 8 bits
Scan type: Progressive
Bits/(Pixel*Frame): 0.181
Stream size: 147 MiB (92%)
Language: English
Encoded date: UTC 2009-09-23 19:13:48
Tagged date: UTC 2009-09-23 19:13:48
Color range: Limited
Color primaries: BT.601 NTSC
Transfer characteristics: BT.709
Matrix coefficients: BT.601

Audio
ID: 2
Format: AAC
Format/Info: Advanced Audio Codec
Format profile: LC
Codec ID: 40
Duration: 25mn 33s
Source duration: 25mn 33s
Bit rate mode: Variable
Bit rate: 64.0 Kbps
Maximum bit rate: 68.0 Kbps
Channel(s): 2 channels
Channel positions: Front: L R
Sampling rate: 44.1 KHz
Compression mode: Lossy
Stream size: 11.7 MiB (7%)
Source stream size: 11.7 MiB (7%)
Language: English
Encoded date: UTC 2009-09-23 19:13:48
Tagged date: UTC 2009-09-23 19:13:48



Added2015-10-15 16:09:37
Size159.02 MB (166,740,104 bytes)
Views5
Num files1 files
Pictures