Taken down by DMCA request

Helix - Sex Boutique (Andy Taylor & Caleb Reece) 720p

CategoryTwinks
Download
You need to Login or Signup first.
DescriptionReleased: August 21, 2014
Full Length: 18 minutes

Caleb Reece wanders into a Sex Boutique where he finds himself at the mercy of the mysterious and seductive Andy Taylor. Without saying a word Andy takes control of young Caleb, kissing and caressing his smooth skin before undressing the shy boy to further indulge his lustful desires. Caleb's bubble butt turns bright red from a few well placed spanks while Andy's abs ripple as he gives the bouncy bottom every inch of his college cock. When Andy is done having his way with Caleb he pulls out to finish off his satisfied customer with a steamy facial.

Models: Andy Taylor, Caleb Reece
Themes: Gay Porn, Twink, Cum Shots, College Guys, Brunette, Blowjob, Bisexual, Anal Sex, American

*****************

Format                                  : MPEG-4
Format profile                          : Base Media / Version 2
Codec ID                                : mp42
File size                                : 489 MiB
Duration                                : 18mn 21s
Overall bit rate mode                    : Variable
Overall bit rate                        : 3 722 Kbps
Encoded date                            : UTC 2014-07-23 16:20:23
Tagged date                              : UTC 2014-07-23 16:20:38

Video
ID                                      : 1
Format                                  : AVC
Format/Info                              : Advanced Video Codec
Format profile                          : Main@L4.0
Format settings, CABAC                  : Yes
Format settings, ReFrames                : 4 frames
Format settings, GOP                    : M=1, N=64
Codec ID                                : avc1
Codec ID/Info                            : Advanced Video Coding
Duration                                : 18mn 21s
Bit rate mode                            : Variable
Bit rate                                : 3 485 Kbps
Maximum bit rate                        : 4 200 Kbps
Width                                    : 1 248 pixels
Original width                          : 1 280 pixels
Height                                  : 702 pixels
Original height                          : 720 pixels
Display aspect ratio                    : 16:9
Frame rate mode                          : Constant
Frame rate                              : 23.976 fps
Color space                              : YUV
Chroma subsampling                      : 4:2:0
Bit depth                                : 8 bits
Scan type                                : Progressive
Bits/(Pixel*Frame)                      : 0.166
Stream size                              : 458 MiB (94%)
Language                                : English
Encoded date                            : UTC 2014-07-23 16:20:05
Tagged date                              : UTC 2014-07-23 16:20:38
Color primaries                          : BT.709
Transfer characteristics                : BT.709
Matrix coefficients                      : BT.709

Audio
ID                                      : 2
Format                                  : AAC
Format/Info                              : Advanced Audio Codec
Format profile                          : LC
Codec ID                                : 40
Duration                                : 18mn 21s
Source duration                          : 18mn 21s
Bit rate mode                            : Constant
Bit rate                                : 120 Kbps
Nominal bit rate                        : 128 Kbps
Channel(s)                              : 2 channels
Channel positions                        : Front: L R
Sampling rate                            : 44.1 KHz
Compression mode                        : Lossy
Stream size                              : 15.7 MiB (3%)
Source stream size                      : 15.7 MiB (3%)
Language                                : English
Encoded date                            : UTC 2014-07-23 16:20:06
Tagged date                              : UTC 2014-07-23 16:20:38

Other
ID                                      : 3
Type                                    : Hint
Format                                  : RTP
Codec ID                                : rtp
Duration                                : 18mn 21s
Language                                : English
Encoded date                            : UTC 2014-07-23 16:20:06
Tagged date                              : UTC 2014-07-23 16:20:38
Added2014-09-01 00:44:26
Size488.79 MB (512,530,153 bytes)
Views0
Num files1 files
Pictures