Taken down by DMCA request

Gay Castings - Ian Levine (1080P)

CategoryAnal
Download
You need to Login or Signup first.
DescriptionGeneral
Format                        : MPEG-PS
File size                      : 4.03 GiB
Duration                      : 46mn 3s
Overall bit rate mode          : Variable
Overall bit rate              : 12.5 Mbps

Video
ID                            : 224 (0xE0)
Format                        : MPEG Video
Format version                : Version 1
Format settings, BVOP          : No
Format settings, Matrix        : Default
Format settings, GOP          : Variable
Duration                      : 46mn 3s
Bit rate mode                  : Variable
Bit rate                      : 12.2 Mbps
Width                          : 1 920 pixels
Height                        : 1 080 pixels
Display aspect ratio          : 16:9
Frame rate                    : 29.970 fps
Color space                    : YUV
Chroma subsampling            : 4:2:0
Bit depth                      : 8 bits
Scan type                      : Progressive
Compression mode              : Lossy
Bits/(Pixel*Frame)            : 0.196
Time code of first frame      : 00:00:00:00
Time code source              : Group of pictures header
Stream size                    : 3.91 GiB (97%)

Audio
ID                            : 192 (0xC0)
Format                        : MPEG Audio
Format version                : Version 1
Format profile                : Layer 2
Duration                      : 46mn 3s
Bit rate mode                  : Constant
Bit rate                      : 128 Kbps
Channel(s)                    : 2 channels
Sampling rate                  : 48.0 KHz
Compression mode              : Lossy
Stream size                    : 42.2 MiB (1%)
Added2015-07-12 19:39:48
Size4.03 GB (4,329,226,240 bytes)
Views0
Num files1 files
Pictures