♺ Jack & Xylon mp4 [TBW]

CategoryTwinks
Download
You need to Login or Signup first.
DescriptionOriginal upload: 2012-07-23 |
Another as yet officially UNreleased TBW HD video. This time it's Jack giving his love & dick to Xylon in a cryptically titled video called "Fuck". Whatever could that mean?

For those who don't know TBW release their videos in parts over several weeks then once all parts have been released, they release a HD full length version. At the time of writing only the first 3 parts of this video have been released). Nevertheless you can get the full length HD version via the love of gaytorrent.ru! Isn't this site good to you?!

If you like seeing Jack top Xylon, you can see a black & white tasteful (did I really just use that word to describe a hard core porn shoot?!! lol) photo gallery of their time together in this torrent:

https://www.gaytorrent.ru/details.php?id=139105

Oh and that torrent also has 2 galleries of fan favorite pretty boy Ugo.

I hope it's acceptable for me to do something slightly unorthodox here and that's to encourage those who can to support TBW and sites like it. I know this site is all about sharing things freely and I think this is a great idea, but I also think it's a good idea for those of us who can from time to time to take out paid memberships to sites if we want them to survive and, for those who like youthful looking legal teens, TBW is one site that definitely deserves to survive.

Just to be very clear though: I am in no way connected with TBW (as much as I would love to be, well at least connected with (to?) their boys, lol). I doubt very very much if anyone from TBW would approve of their material being posted to torrent sites, but I am aware of an argument that many content producers gain from their stuff being made freely available, because it then comes to the attention of people who might not otherwise have seen it, some of whom will go on to become paying consumers. I've no idea if that argument is correct, but it would be nice to know that TBW (and other sites like them) gain financially from their stuff being made available here. This is assuming that they are good to their boys, which I'm *hoping* that they are.

A note to the moderators - please feel free to remove the last 2 paragraphs, if you don't think it's appropriate for me to be saying this (or ask me to do so before you approve this torrent).

Finally I keep meaning to do this, but I want to thank the sexy boys of TBW - in this case Jack & Xylon for allowing us to witness their bumming. A very nice bumming it was too, thanks boys!


Seed points very gratefully received, thanks everyone!


Enjoy!


Technical info follows:

General
Format                        : MPEG-4
Format profile                : Base Media / Version 2
Codec ID                      : mp42
File size                      : 718 MiB
Duration                      : 21mn 47s
Overall bit rate mode          : Variable
Overall bit rate              : 4 606 Kbps


Video
ID: 1
Format: AVC
Format/Info: Advanced Video Codec
Format profile: High@L4.0
Format settings, CABAC: No
Format settings, ReFrames: 1 frame
Codec ID: avc1
Codec ID/Info: Advanced Video Coding
Duration: 21mn 47s
Bit rate mode: Variable
Bit rate: 4 474 Kbps
Width: 1 280 pixels
Height: 720 pixels
Display aspect ratio: 16:9
Frame rate mode: Constant
Frame rate: 25.000 fps
Color space: YUV
Chroma subsampling: 4:2:0
Bit depth: 8 bits
Scan type: Progressive
Bits/(Pixel*Frame): 0.194
Stream size: 698 MiB (97%)


Audio
ID: 2
Format: AAC
Format/Info: Advanced Audio Codec
Format profile: LC
Codec ID: 40
Duration: 21mn 46s
Source duration: 21mn 46s
Bit rate mode: Variable
Bit rate: 132 Kbps
Maximum bit rate: 220 Kbps
Channel(s): 2 channels
Channel positions: Front: L R
Sampling rate: 44.1 KHz
Compression mode: Lossy
Stream size: 20.2 MiB (3%)
Source stream size: 20.2 MiB
Added2015-02-14 14:10:06
Size718.18 MB (753,063,119 bytes)
Views996
Num files1 files
Pictures