Taken down by DMCA request

[Lucas Entertainment] Jack STyles Takes a Raw Rid on Jake Andrew's Dick[540p]

You need to Login or Signup first.
DescriptionRelease Date: Feb 20 2015
Jack Styles takes a raw ride on Jake Andrews’ dick! These two look like they were made for each other. If you could pair two gym rats together and have them fuck, it is safe to assume Jack Styles and Jake Andrews are an excellent match. After their interview the guys sink into each other and remove clothing. It is obvious from Jack’s energy that he loves men and offering up his body to them. And Jake Andrews is happy to accept -- check out 19:50 and see Jake eat out Jack and rub his ass, and what a beautiful ass and hole they are! A little bit further in he opens the horny bottom up with a dildo. Jake is a skilled top that understands pacing is everything to an enjoyable sexual experience: at 27:38 he begins with Jack on his elbows. When Jack gets on his back, well, you’ll see that Jake squirts his cum!

Complete name                  : [Lucas Entertainment] Jack STyles Takes a Raw Rid on Jake Andrew's Dick.mp4
Format                        : MPEG-4
Format profile                : Base Media / Version 2
Codec ID                      : mp42
File size                      : 772 MiB
Duration                      : 50mn 41s
Overall bit rate mode          : Variable
Overall bit rate              : 2 130 Kbps
Writing application            : HandBrake 0.10.0 2014112200

ID                            : 1
Format                        : AVC
Format/Info                    : Advanced Video Codec
Format profile                : Main@L4.0
Format settings, CABAC        : Yes
Format settings, ReFrames      : 5 frames
Codec ID                      : avc1
Codec ID/Info                  : Advanced Video Coding
Duration                      : 50mn 41s
Bit rate                      : 2 000 Kbps
Width                          : 960 pixels
Height                        : 540 pixels
Display aspect ratio          : 16:9
Frame rate mode                : Variable
Frame rate                    : 23.976 fps
Minimum frame rate            : 23.753 fps
Maximum frame rate            : 24.390 fps
Color space                    : YUV
Chroma subsampling            : 4:2:0
Bit depth                      : 8 bits
Scan type                      : Progressive
Bits/(Pixel*Frame)            : 0.161
Stream size                    : 723 MiB (94%)
Writing library                : x264 core 142 r2479 dd79a61
Color primaries                : BT.709
Transfer characteristics      : BT.709
Matrix coefficients            : BT.709

ID                            : 2
Format                        : AAC
Format/Info                    : Advanced Audio Codec
Format profile                : LC
Codec ID                      : 40
Duration                      : 50mn 41s
Bit rate mode                  : Variable
Bit rate                      : 129 Kbps
Channel(s)                    : 2 channels
Channel positions              : Front: L R
Sampling rate                  : 48.0 KHz
Compression mode              : Lossy
Stream size                    : 46.6 MiB (6%)
Title                          : Stereo

Added2015-02-21 09:19:50
Size772.19 MB (809,698,559 bytes)
Num files1 files