♺ AbsoluteXXX - Raw Punishment (avi)

CategoryTwinks
Download
You need to Login or Signup first.
DescriptionOriginal upload: 2008-06-07 by unknown |

RAW PUNISHMENT
Year: 2007
Length: 140 min
Country: Czech Republic
Language: Czech

Genre: Bareback, Twinks, Uncut Cocks, Older & Younger, Spanking, Rimming,  Rough Sex, Oral Cum, Cumshots, Three Ways

Studio : Absolute XXX

Cast: Enrico Cruiz, David Owen, Dan Bix, Tony Elliot, Garry Farr, Rusty Coffin, Claudio Cesar, Matt Jakes, Clive Harper, Nick Lamar, Amado Cirlio, Billy Dexter

Director: Daniel Bonetto

Description: Are you in need of raw hot sex? Then Raw Punishment will deliver. These hot guys know how to get down and dirty with hot sucking and hard fuck scenes. Don't miss it...

Review: Thirteen boys in a boarding school in Raw Punishment, where the teacher has his hands full in more ways than one to keep them orderly. 140 lecherous minutes!

Technical data:

General

Complete name                    : [Absolute XXX] RAW Punishment (2007).avi
Format                          : AVI
Format/Info                      : Audio Video Interleave
File size                        : 1.27 GiB
Duration                        : 2h 25mn
Overall bit rate                : 1 253 Kbps
Writing application              : VirtualDubMod 1.5.4.1 (build 2178/release)
Writing library                  : VirtualDubMod build 2178/release

Video

Format                          : MPEG-4 Visual
Format profile                  : Advanced Simple@L5
Format settings, BVOP            : Yes
Format settings, QPel            : No
Format settings, GMC            : No warppoints
Format settings, Matrix          : Custom
Codec ID                        : XVID
Codec ID/Hint                    : XviD
Duration                        : 2h 25mn
Bit rate                        : 1 054 Kbps
Width                            : 720 pixels
Height                          : 400 pixels
Display aspect ratio            : 16:9
Frame rate                      : 29.970 fps
Color space                      : YUV
Chroma subsampling              : 4:2:0
Bit depth                        : 8 bits
Scan type                        : Progressive
Bits/(Pixel*Frame)              : 0.122
Stream size                      : 1.07 GiB (84%)
Writing library                  : XviD 1.2.0.dev47 (UTC 2006-11-01)

Audio

Format                          : AC-3
Format/Info                      : Audio Coding 3
Mode extension                  : CM (complete main)
Codec ID                        : 2000
Duration                        : 2h 24mn
Bit rate mode                    : Constant
Bit rate                        : 192 Kbps
Channel(s)                      : 2 channels
Channel positions                : Front: L R
Sampling rate                    : 48.0 KHz
Bit depth                        : 16 bits
Stream size                      : 199 MiB (15%)
Alignment                        : Aligned on interleaves
Interleave, duration            : 96 ms (2.88 video frames)
Interleave, preload duration    : 96 ms


~bareback
Added2015-06-05 03:17:40
Size1.27 GB (1,363,083,264 bytes)
Views4785
Num files1 files
Pictures