KA Gino Mosca & Kirk McCartney (816p)

CategoryYoungblood
Download
You need to Login or Signup first.
DescriptionKinkyAngels Gino Mosca & Kirk McCartney: Stop Talking (Condom Free)

Duration: 00:20:42

Video
Format: AVC
Format settings, ReFrames: 4 frames
Bit rate : 6 585 Kbps
Display aspect ratio: 1440x816 (16:9)
Frame rate mode: Constant
Frame rate: 29.970 fps
Color space: YUV
Bit depth: 8 bits
Scan type: Progressive
Bits/(Pixel*Frame): 0.187
Stream size: 975 MiB (98%)

Audio
Format: AAC
Bit rate mode : Variable
Bit rate : 107 Kbps
Maximum bit rate: 114 Kbps
Channel(s): 2 channels
Compression mode: Lossy
Stream size: 15.8 MiB (2%)
Language: English
Added2015-05-08 17:51:30
Size991.43 MB (1,039,594,575 bytes)
Views8
Num files1 files
Pictures