♺ Body Shoppe - The Seduction of a College Freshman

CategoryYoungblood
Download
You need to Login or Signup first.
DescriptionOriginal upload: 2011-04-10 |
This is obviously a VHS transfer and the picture quality is not great! But it's worth a look. The dark haired guy in the last scene is really hot!

Online review:

Hooray for the dirty old man. The narrator pays supposedly straight guys-supposedly college guys this time-to jack themselves and each other. Sometimes they do more. There's lots of talk about "pussy," and "doing this for the first time." Straight porn plays offscreen, with the sound of women screaming. It's harmless fun and makes for sexy, sleazy scenes.

He sometimes stars one guy. Here, it's blond Pee Wee, who's playful while stripping. His "best buddy," Wyatt, is surly. Wyatt has nothing to hide. His large cock looks beautiful in its reddish-brown bush. When he squats on a mirror, he shows juicy purple hole. Pee Wee's hole is pinker and very wet. They jack side by side. Pee Wee fondles Wyatt's ass and dick and goes down on him. Wyatt clutches a football and scowls.

Impish surfer Spike has a tight little body and a stubby dick that grows to a nice handful. It's an ass-full for Pee Wee, too, once Spike finishes insisting that he only fucks females. He lets the narrator and Pee Wee jack him. Pee Wee sucks his cock, then condoms him and goes on all fours to get fucked, not very successfully. They jack their wads.

Tall jock Cowboy "doesn't play," but lets Pee Wee jack him some. He hasn't much dick, and takes forever getting hard, but cums gallons.

Skinny high-school senior Jay barely has pubic hair, but has all the cut cock a man could ask for. Squatting on the mirror, he shows wrinkled, pale pink anus that's all any cock could ask for. But he just jacks beside Pee Wee. They both blow great loads.

Rangy Speedy hops right into mutual jacking, lets Pee Wee deep-throat the biggest dick in the movie, and falls right down to sixty-nine, then spreads in several positions to get fucked. Unfortunately, he doesn't get to stick his dick in Pee Wee, but he jacks a lot of semen from it with both fists, then lends Pee Wee a hand.

Format                          : MPEG-4
Format profile                  : Base Media
Codec ID                        : isom
File size                        : 403 MiB
Duration                        : 1h 49mn
Overall bit rate                : 515 Kbps
Movie name                      : seduction
Writing application              : Lavf52.78.3

Video
ID                              : 1
Format                          : AVC
Format/Info                      : Advanced Video Codec
Format profile                  : Baseline@L1.3
Format settings, CABAC          : No
Format settings, ReFrames        : 2 frames
Codec ID                        : avc1
Codec ID/Info                    : Advanced Video Coding
Duration                        : 1h 49mn
Bit rate mode                    : Variable
Bit rate                        : 384 Kbps
Width                            : 640 pixels
Height                          : 480 pixels
Display aspect ratio            : 4:3
Frame rate mode                  : Constant
Frame rate                      : 25.000 fps
Color space                      : YUV
Chroma subsampling              : 4:2:0
Bit depth                        : 8 bits
Scan type                        : Progressive
Bits/(Pixel*Frame)              : 0.050
Stream size                      : 301 MiB (75%)

Audio
ID                              : 2
Format                          : AAC
Format/Info                      : Advanced Audio Codec
Format profile                  : LC
Codec ID                        : 40
Duration                        : 1h 47mn
Bit rate mode                    : Variable
Bit rate                        : 128 Kbps
Channel(s)                      : 2 channels
Channel positions                : Front: L R
Sampling rate                    : 44.1 KHz
Compression mode                : Lossy
Stream size                      : 98.7 MiB (25%)


Enjoy!


Added2016-10-11 08:02:06
Size410.04 MB (429,956,062 bytes)
Views2779
Num files24 files
Pictures