Taken down by DMCA request

BareTwinks - Christmas Fraternity Orgy - Remastered - 1080p

CategoryBareback
Download
You need to Login or Signup first.
DescriptionA BareTwinks Christmas Special... Frat Initiation Orgy!!! Parts ONE and TWO Joined, and Remastered!

Anthony Evans is about to get the kind of initiation into the Frat House that we all imagine happens every day! The boys start things off with the traditional ass paddling, but there's a lot of cum in those boys balls and Anthony is in need of some raw cocks in his ass and mouth! All the boys share him, breaking him in feeding him their dicks as Jasper Robinson fucks his ass, then Max Leo jumps on for a ride!
The Hardcore twink Fraternity Orgy continues, as Anthony Evans enjoys being in the middle of an orgy. He's been fucked deep by Jasper Robinson, and Max Leo has been enjoying riding his hard cock, but now it's time for the boys to all get what they need as dicks slide into butts and every twink boy gets the cum load pumping out! Check out the chain fuck, and Anthony getting a messy bukkake ending!
(Studio Promotion, minor editing)
====================General Info=============================================
Remastered by yours truly, back in October... on HOLD until TODAY, so.... Merry Christmas!

Basically... a shameless FIVE person Bareback Orgy, in a great mock Frat House Christmas setting, lol.

94 selected scene captures (at 1/2 size, for ease of Windows Slide Show) included!!
====================Title Info=================================================
Title: Bareback Fraternity Orgy (Parts 1 and 2)
Studio: BareTwinks
Part 1 Released Jan. 4, 2013 and Part 2 released Jan. 13, 2013
Duration (joined) 30 minutes
Models: Phillip Ashton, Anthony Evans, Evan James, Max Leo, Jasper Robinson
Tags: ~Anal, ~Gangbang, ~Facial, ~Masturbation, ~Twinks, ~Bareback, ~Spank, ~Deep Throat, ~Black Hair, ~Blond Hair, ~Brown Hair, ~Shaved, ~Trimmed, ~69, ~Cut, ~Large Dick, ~Short Hair, ~Ass Play, ~Ball Play, ~Cum Jerking Off, ~Rough Sex, ~Missionary, ~Passionate Fuck, ~Riding, ~Other Location, ~American
===================Remastering Info===========================================
Remastering (if you look at the Before and After photos) consisted of GREATLY reducing Chroma levels (down to 78%), fixing the white balance with 10% Blue and 1.7% Red added, and shifting Chroma Phase -4 degrees to get rid of the greenish tones to their skin... In hindsight, maybe I should have gone 1 or 2 more degrees, but it's "passable" as corrected.

The Remastering project took up 370 GB of hard disk space.  Video was (in final stage) re-encoded in x264 MP4 format, optimized for a Q-factor of .2 (highest quality), and muxed with Lame3.98 MP3 encoded audio.

Enjoy!!!!
Pawpcorn
==================Studio Promotion Links=======================================
http://tour.boycrush.com/boy-crush-watch-gay-movies/bt129_anthonyevans_fratorgy/Bareback+Fraternity+Orgy+Part+1?nats=Mi43LjEuMS4yLjAuMC4wLjA
http://tour.boycrush.com/boy-crush-watch-gay-movies/bt130_anthonyevans_fratorgy/Anthony+Evans+Frat+Orgy+2?nats=Mi43LjEuMS4yLjAuMC4wLjA
===================Technical Details============================================
Multimedia Analysis:
[General] Complete name : BareTwinks - Bareback Fraternity Orgy - Remastered.mp4
Format : MPEG-4
Format profile : Base Media
Codec ID : isom
File size : 2.63 GiB
Duration : 29mn 54s
Overall bit rate : 12.6 Mbps
Encoded date : UTC 2015-10-14 16:40:13
Tagged date : UTC 2015-10-14 16:40:13

[Video] ID : 1
Format : AVC
Format/Info : Advanced Video Codec
Format profile : High@L4
Format settings, CABAC : Yes
Format settings, ReFrames : 3 frames
Codec ID : avc1
Codec ID/Info : Advanced Video Coding
Duration : 29mn 54s
Source duration : 3s 664ms
Bit rate : 12.5 Mbps
Maximum bit rate : 29.0 Mbps
Width : 1 920 pixels
Height : 1 080 pixels
Display aspect ratio : 16:9
Frame rate mode : Constant
Frame rate : 29.970 fps
Color space : YUV
Chroma subsampling : 4:2:0
Bit depth : 8 bits
Scan type : Progressive
Bits/(Pixel*Frame) : 0.201
Stream size : 2.60 GiB (99%)
Source stream size : 2.60 GiB (99%)
Writing library : x264 core 146 r2538bm 121396c
Encoding settings : cabac=1 / ref=3 / deblock=1:0:0 / analyse=0x3:0x113 / me=hex / subme=7 / psy=1 / psy_rd=1.00:0.00 / mixed_ref=1 / me_range=16 / chroma_me=1 / trellis=1 / 8x8dct=1 / cqm=0 / deadzone=21,11 / fast_pskip=1 / chroma_qp_offset=-2 / threads=2 / lookahead_threads=2 / sliced_threads=1 / slices=2 / nr=0 / decimate=1 / interlaced=0 / bluray_compat=0 / constrained_intra=0 / bframes=0 / weightp=2 / keyint=250 / keyint_min=25 / scenecut=40 / intra_refresh=0 / rc=2pass / mbtree=0 / bitrate=12465 / ratetol=1.0 / qcomp=0.60 / qpmin=0 / qpmax=69 / qpstep=4 / cplxblur=20.0 / qblur=0.5 / ip_ratio=1.40 / aq=1:1.00
Encoded date : UTC 2015-10-14 13:56:38
Tagged date : UTC 2015-10-14 16:41:37
mdhd_Duration : 1794666

[Audio] ID : 2
Format : MPEG Audio
Format version : Version 1
Format profile : Layer 3
Codec ID : 6B
Duration : 29mn 54s
Bit rate mode : Constant
Bit rate : 128 Kbps
Maximum bit rate : 132 Kbps
Channel(s) : 2 channels
Sampling rate : 48.0 KHz
Compression mode : Lossy
Stream size : 27.4 MiB (1%)
Writing library : LAME3.98r
Encoding settings : -m s -V 4 -q 3 -lowpass 17 -b 128
Language : English
Encoded date : UTC 2015-10-14 16:41:35
Tagged date : UTC 2015-10-14 16:41:37
Added2015-12-25 13:46:08
Size2.66 GB (2,855,889,872 bytes)
Views0
Num files96 files
Pictures