♺ [eros] Processing the Holes of Salarymen [ERS23]

CategoryAsian
Download
You need to Login or Signup first.
DescriptionOriginal upload: 2012-11-19 |
Original Title: 処理穴リーマン
Release Date: 2010/08/18
hxxp://ko-video.com/pc/detail/KERO23_DVD

General
Format                                  : AVI
Format/Info                              : Audio Video Interleave
File size                                : 1.54 GiB
Duration                                : 1h 52mn
Overall bit rate                        : 1 964 Kbps

Video
ID                                      : 0
Format                                  : MPEG-4 Visual
Format settings, BVOP                    : 1
Format settings, QPel                    : No
Format settings, GMC                    : No warppoints
Format settings, Matrix                  : Default (H.263)
Muxing mode                              : Packed bitstream
Codec ID                                : DX50
Codec ID/Hint                            : DivX 5
Duration                                : 1h 52mn
Bit rate                                : 1 896 Kbps
Width                                    : 720 pixels
Height                                  : 480 pixels
Display aspect ratio                    : 4:3
Frame rate                              : 29.970 fps
Standard                                : NTSC
Color space                              : YUV
Chroma subsampling                      : 4:2:0
Bit depth                                : 8 bits
Scan type                                : Progressive
Compression mode                        : Lossy
Bits/(Pixel*Frame)                      : 0.183
Stream size                              : 1.49 GiB (97%)
Writing library                          : DivX 6.8.5 (UTC 2009-08-20)

Audio
ID                                      : 1
Format                                  : MPEG Audio
Format version                          : Version 2
Format profile                          : Layer 3
Mode                                    : Joint stereo
Mode extension                          : Intensity Stereo
Codec ID                                : 55
Codec ID/Hint                            : MP3
Duration                                : 1h 52mn
Bit rate mode                            : Constant
Bit rate                                : 56.0 Kbps
Channel(s)                              : 2 channels
Sampling rate                            : 24.0 KHz
Compression mode                        : Lossy
Stream size                              : 45.1 MiB (3%)
Alignment                                : Split accross interleaves
Interleave, duration                    : 33 ms (1.00 video frame)
Interleave, preload duration            : 3 ms
Added2015-05-14 01:55:07
Size1.54 GB (1,658,879,788 bytes)
Views554
Num files1 files
Pictures