[DomiAddict] French Dog Maxime, young slut like a dog gets ass fucked violently

CategoryFetish
Download
You need to Login or Signup first.
Descriptiona young slut received an order to be available for 24 hours dog training, he will have to suck a huge cock :)


Ok, this is my 1st torrent here, so lets see how it works :)


domiaddict.com:

French Dog Maxime
After several weeks of exchanges Maxime, a young slut, received an order to be available for 24 hours dog training. Upon his arrival, he will be dragged on the ground, caged, forced to drink a piss and lick his master's feets. The dog will be and mercilessly flogged insulted. Maxime will live his dog day in pain and sweat. Finally he will have to suck a huge cock of DomiAddict' friend, which will also fuck his ass violently and with no mercy. Poor dog.

file information:
Format                                  : MPEG-4
Format profile                          : Base Media
Codec ID                                : isom
File size                                : 209 MiB
Duration                                : 17mn 52s
Overall bit rate                        : 1 634 Kbps


Video
ID                                      : 1
Format                                  : AVC
Format/Info                              : Advanced Video Codec
Format profile                          : High@L3.1
Format settings, CABAC                  : Yes
Format settings, ReFrames                : 4 frames
Codec ID                                : avc1
Codec ID/Info                            : Advanced Video Coding
Duration                                : 17mn 52s
Bit rate                                : 1 532 Kbps
Width                                    : 1 280 pixels
Height                                  : 720 pixels
Display aspect ratio                    : 16:9
Frame rate mode                          : Constant
Frame rate                              : 25.000 fps
Color space                              : YUV
Chroma subsampling                      : 4:2:0
Bit depth                                : 8 bits
Scan type                                : Progressive
Bits/(Pixel*Frame)                      : 0.066
Stream size                              : 196 MiB (94%)


Audio
ID                                      : 2
Format                                  : AAC
Format/Info                              : Advanced Audio Codec
Format profile                          : LC
Codec ID                                : 40
Duration                                : 17mn 52s
Duration_LastFrame                      : -8ms
Bit rate mode                            : Constant
Bit rate                                : 96.0 Kbps
Channel(s)                              : 2 channels
Channel positions                        : Front: L R
Sampling rate                            : 44.1 KHz
Compression mode                        : Lossy
Delay relative to video                  : 80ms
Stream size                              : 12.3 MiB (6%)
Added2014-08-08 21:38:43
Size208.95 MB (219,103,235 bytes)
Views359
Num files1 files
Pictures