♺ [Chubold JPN]Vcd - 737 (Chinese)

CategoryChubbies
Download
You need to Login or Signup first.
DescriptionOriginal upload: 2012-10-22 |
General
Complete name                            : C:Torrent[Chubold JPN]Vcd - 737 (Chinese).avi
Format                                  : DivX
Format/Info                              : Hack of AVI
File size                                : 253 MiB
Duration                                : 24mn 36s
Overall bit rate                        : 1 434 Kbps

Video
ID                                      : 0
Format                                  : MPEG-4 Visual
Format settings, BVOP                    : 1
Format settings, QPel                    : No
Format settings, GMC                    : No warppoints
Format settings, Matrix                  : Default (H.263)
Muxing mode                              : Packed bitstream
Codec ID                                : DX50
Codec ID/Hint                            : DivX 5
Duration                                : 24mn 36s
Bit rate                                : 1 297 Kbps
Width                                    : 704 pixels
Height                                  : 528 pixels
Display aspect ratio                    : 4:3
Frame rate                              : 25.000 fps
Color space                              : YUV
Chroma subsampling                      : 4:2:0
Bit depth                                : 8 bits
Scan type                                : Progressive
Compression mode                        : Lossy
Bits/(Pixel*Frame)                      : 0.140
Stream size                              : 228 MiB (90%)
Title                                    : Video
Writing library                          : DivX 6.2.5 (UTC 2006-07)

Audio
ID                                      : 1
Format                                  : MPEG Audio
Format version                          : Version 1
Format profile                          : Layer 3
Mode                                    : Dual mono
Codec ID                                : 55
Codec ID/Hint                            : MP3
Duration                                : 24mn 36s
Bit rate mode                            : Constant
Bit rate                                : 128 Kbps
Channel(s)                              : 2 channels
Sampling rate                            : 44.1 KHz
Compression mode                        : Lossy
Stream size                              : 22.5 MiB (9%)
Alignment                                : Split accross interleaves
Interleave, duration                    : 40 ms (1.00 video frame)
Interleave, preload duration            : 500 ms
Title                                    : Audio


Added2015-05-30 22:16:05
Size252.50 MB (264,765,548 bytes)
Views646
Num files1 files
Pictures