NewHalfClub - Rin - Japanese Ladyboy - NO MASK - Remastered

CategoryShemale
Download
You need to Login or Signup first.
DescriptionLadyboy Rin gets involved in some Japanese drama involving her boyfriend and another couple.

The plot isn't important, but the sex is sizzling hot.

Remastered, in the sense of sharpening it a bit, and converting it to variable-rate Xvid .avi, and fixing the audio to stereo from original (too loud) mono.

http://en.newhalfclub.com

============Technical Details==============
[General] Complete name :NewHalfClub - Rin - Japanese Ladyboy - NO Mask.avi
Format : AVI
Format/Info : Audio Video Interleave
File size : 517 MiB
Duration : 37mn 21s
Overall bit rate : 1 933 Kbps
Writing library : VirtualDub build 32839/release

[Video] ID : 0
Format : MPEG-4 Visual
Format profile : Advanced Simple@L5
Format settings, BVOP : 2
Format settings, QPel : No
Format settings, GMC : No warppoints
Format settings, Matrix : Default (MPEG)
Muxing mode : Packed bitstream
Codec ID : XVID
Codec ID/Hint : XviD
Duration : 37mn 21s
Bit rate : 1 793 Kbps
Width : 432 pixels
Height : 320 pixels
Display aspect ratio : 4:3
Frame rate : 29.970 fps
Color space : YUV
Chroma subsampling : 4:2:0
Bit depth : 8 bits
Scan type : Progressive
Compression mode : Lossy
Bits/(Pixel*Frame) : 0.433
Stream size : 479 MiB (93%)
Writing library : XviD 64

[Audio] ID : 1
Format : MPEG Audio
Format version : Version 1
Format profile : Layer 3
Mode : Joint stereo
Mode extension : MS Stereo
Codec ID : 55
Codec ID/Hint : MP3
Duration : 37mn 20s
Bit rate mode : Constant
Bit rate : 128 Kbps
Channel count : 2 channels
Sampling rate : 48.0 KHz
Compression mode : Lossy
Stream size : 34.2 MiB (7%)
Alignment : Split accross interleaves
Interleave, duration : 33 ms (1.00 video frame)
Interleave, preload duration : 500 ms

Added2014-12-19 15:43:24
Size521.64 MB (546,980,220 bytes)
Views2
Num files43 files
Pictures