Taken down by DMCA request

Dick Wadd - Stump

You need to Login or Signup first.
DescriptionSay you’re the man who’s taken absolutely everything up your ass…thousands of cocks, thick and thin, short and long, cut and uncut; butt plugs and dildos; billiard balls and billy clubs; enema tubes and garden hoses; fists, arms, feet; zucchini, eggplants, oranges; dogs, horses, gerbils. What else is there?


You should be.

“I’m in…I’m really in. I can’t believe it!” How many times have you heard that line? Maybe even uttered it? (Before your 18th birthday doesn’t count.) Well, the first time hot Dutch stud Eyton makes this announcement in Dick Wadd’s revolutionary porn epic STUMP, you won’t believe it either. Eyton’s legs end at his knees, and what’s “really in” – in lucky Bud’s bottomless bunghole – is the stump of Eyton’s right leg.

How did Eyton and Bud get to this sublime moment? Bud picked Eyton and his wheelchair up at a bus stop, promising to bring him to a great party. (Those of us who already know Bud also know what he thinks is a great party.) When he wheeled Eyton into a dungeon, where Eric Rogers was already hard at work throwing an aggressive bareback fuck into a slut named Kansas, Eyton didn’t know how to react. He demanded to be allowed to leave, but Bud knew Eyton’s needs and desires better than he himself did. So Eyton got tossed into the cage, and in short order got blatted on by Kansas and Randy Holmes. Then he was forced to watch Eric fucking Kansas some more, which got him hot and bothered, jacking his throbbing cock and flexing his leg stumps just the way you and I flex our legs while jacking off. When Bud finally let Eyton out of the cage, Eric and Bud stump-worshipped him with their big, filthy mouths, Eric sucked his dick, and then Eyton got fucked by Eric and Kansas.

There’s lots of hot action going on in STUMP – Kansas begging Eric to “rape my ass, fuck my loose boy pussy,” which he does, with phallus and blat and dildo and fist; Eric and Mark Hamilton sharing a tub and each others’ blat; Kansas fisting Bud while he sucks Eyton; Mark blatting on Taurus’s boot and licking it clean; Eric’s cock carving out a new asshole for Bud. But the true climax of this video is Eyton’s sexual awakening to the possibilities available to a man without feet.

Bud lovingly lubes Eyton’s stump, and then with determination and concentration, but without hesitation, sits down on it. When Eyton cries out in ecstasy, “I’ve got my whole leg up your butt! I’m stump-fuckin’ you, man! You feel that stump?” Bud’s response is to impale himself more firmly on Eyton’s manly stump, and then reach for more lube. Later on, they play some more “stump the rump”, after which Eyton fists Bud just the way you and I would do when presented with such a luscious piece of posterior.

Once you get past the novelty of a porn star in a wheelchair, you begin to notice just how hot Eyton actually is. He’s got a perfectly proportioned cock; an expressive O of a mouth, with brilliant white teeth and truly fuckable lips; a hairy chest and well-developed arms; and a sweet, muscular butt. Eyton is as sexy as any of his co-stars, and once you witness his virtuoso performance in STUMP (and after you suck your own cum out of your fuck buddy’s raw rosebud), you may just begin to question your concept of limits.

Being gay has always been about being different. And being a gay man has always been about using your cock to celebrate being different. Always a minority, we embrace all minorities, all diversity. Dick Wadd’s videos celebrate the diversity of gay male sexual life, with their emphasis on leather and fetish play. It doesn’t matter if you’re a top or a bottom, cut or uncut, blond or bald, black or white, smooth or hairy, tall or short, buff or bear, domestic or imported…and obviously, it doesn’t matter if you walk or wheel. You’re a man, you’re gay, you’re hard, you’re horny…

Dick Wadd is about you.

File size                                : 730 MiB
Duration                                : 1h 38min
Overall bit rate                        : 1 039 Kbps

ID                                      : 0
Format                                  : MPEG-4 Visual
Format settings, BVOP                    : 1
Format settings, QPel                    : Nein
Format settings, GMC                    :  Keine warppoints
Format settings, Matrix                  : Default (H.263)
Muxing mode                              : Packed bitstream
Codec ID                                : DX50
Codec ID/Hint                            : DivX 5
Duration                                : 1h 38min
Bit rate                                : 899 Kbps
Width                                    : 512 Pixel
Height                                  : 384 Pixel
Display aspect ratio                    : 4:3
Frame rate                              : 29,970 FPS
Color space                              : YUV
Chroma subsampling                      : 4:2:0
Bit depth                                : 8 bits
Scan type                                : progressiv
Bits/(Pixel*Frame)                      : 0.153
Stream size                              : 632 MiB (87%)
Writing library                          : DivX 5.0.5 Kauehi (UTC 2003-07-02)

ID                                      : 1
Format                                  : MPEG Audio
Format version                          : Version 1
Format profile                          : Layer 3
Codec ID                                : 55
Codec ID/Hint                            : MP3
Duration                                : 1h 38min
Source duration                          : 1h 38min
Bit rate mode                            : konstant
Bit rate                                : 128 Kbps
Channel(s)                              : 2 Kanäle
Sampling rate                            : 44,1 KHz
Stream size                              : 90,0 MiB (12%)
Alignment                                : Aufteilung ĂĽber Interleaves
Interleave, duration                    : 33 ms (1,00 Video-Frame)
Interleave, preload duration            : 500 ms

Added2015-08-19 19:27:41
Size730.61 MB (766,097,952 bytes)
Num files7 files