♺ MachoFucker - Brutal Bugarron 2 (06 13 2014)

CategoryBareback
Download
You need to Login or Signup first.
DescriptionOriginal upload: 2014-06-14 |
This is how they fuck: brutal, merciless, nonstop, only their own satisfaction in mind. And the Bottom boy is nothing but the piece of flesh that is needed to empty their ever-charged balls.

File size : 537 MiB
Duration : 13mn 55s
Overall bit rate mode : Constant
Overall bit rate : 5 391 Kbps
Maximum Overall bit rate : 5 430 Kbps
Movie name : BrutalBugarron2HDmp4
Encoded date : UTC 2014-06-14 07:11:51.353

Video
ID : 2
Format : VC-1
Format profile : Advanced@L3
Codec ID : WVC1
Codec ID/Hint : Microsoft
Description of the codec : Windows Media Video 9 Advanced Profile
Duration : 13mn 55s
Bit rate mode : Constant
Bit rate : 5 000 Kbps
Width : 1 280 pixels
Height : 720 pixels
Display aspect ratio : 16:9
Frame rate : 50.000 fps
Chroma subsampling : 4:2:0
Bit depth : 8 bits
Scan type : Progressive
Compression mode : Lossy
Bits/(Pixel*Frame) : 0.109
Stream size : 498 MiB (93%)
Language : English

Audio
ID : 1
Format : WMA
Format profile : Pro
Codec ID : 162
Codec ID/Info : Windows Media Audio
Description of the codec : Windows Media Audio 10 Professional - 384 kbps, 48 kHz, 5.1 channel 16 bit (A/V) 1-pass CBR
Duration : 13mn 55s
Bit rate mode : Constant
Bit rate : 384 Kbps
Channel(s) : 6 channels
Sampling rate : 48.0 KHz
Bit depth : 16 bits
Stream size : 38.2 MiB (7%)
Language : English

Enjoy!
Added2016-10-25 21:16:08
Size536.67 MB (562,743,411 bytes)
Views186
Num files1 files
Pictures