Ennio Guardi & Andy

CategoryAnal
Download
You need to Login or Signup first.
DescriptionEnnio Guardi & Andy

Format                                  : MPEG-4
Format profile                          : Base Media / Version 2
Codec ID                                : mp42
File size                                : 405 MiB
Duration                                : 34mn 20s
Overall bit rate mode                    : Variable
Overall bit rate                        : 1 650 Kbps
Writing application                      : Lavf55.19.104

Video
ID                                      : 201
Format                                  : AVC
Format/Info                              : Advanced Video Codec
Format profile                          : High@L3.1
Format settings, CABAC                  : Yes
Format settings, ReFrames                : 4 frames
Format settings, GOP                    : M=4, N=50
Codec ID                                : avc1
Codec ID/Info                            : Advanced Video Coding
Duration                                : 34mn 20s
Bit rate                                : 1 500 Kbps
Width                                    : 1 280 pixels
Height                                  : 720 pixels
Display aspect ratio                    : 16:9
Frame rate mode                          : Constant
Frame rate                              : 30.000 fps
Color space                              : YUV
Chroma subsampling                      : 4:2:0
Bit depth                                : 8 bits
Scan type                                : Progressive
Bits/(Pixel*Frame)                      : 0.054
Stream size                              : 368 MiB (91%)
Writing library                          : x264 core 140 r2 1ca7bb9
Encoding settings                        : cabac=1 / ref=3 / deblock=1:0:0 / analyse=0x3:0x113 / me=hex / subme=7 / psy=1 / psy_rd=1.00:0.00 / mixed_ref=1 / me_range=16 / chroma_me=1 / trellis=1 / 8x8dct=1 / cqm=0 / deadzone=21,11 / fast_pskip=1 / chroma_qp_offset=-2 / threads=1 / lookahead_threads=1 / sliced_threads=0 / nr=0 / decimate=1 / interlaced=0 / bluray_compat=0 / constrained_intra=0 / bframes=3 / b_pyramid=2 / b_adapt=1 / b_bias=0 / direct=1 / weightb=1 / open_gop=0 / weightp=2 / keyint=50 / keyint_min=5 / scenecut=40 / intra_refresh=0 / rc_lookahead=40 / rc=cbr / mbtree=1 / bitrate=1500 / ratetol=1.0 / qcomp=0.60 / qpmin=0 / qpmax=69 / qpstep=4 / vbv_maxrate=1500 / vbv_bufsize=3000 / nal_hrd=none / filler=0 / ip_ratio=1.40 / aq=1:1.00
Language                                : English
Tagged date                              : UTC 2014-03-23 14:10:00

Audio
ID                                      : 101
Format                                  : AAC
Format/Info                              : Advanced Audio Codec
Format profile                          : LC
Codec ID                                : 40
Duration                                : 34mn 20s
Bit rate mode                            : Variable
Bit rate                                : 66.2 Kbps
Maximum bit rate                        : 1 500 Kbps
Channel(s)                              : 2 channels
Channel positions                        : Front: L R
Sampling rate                            : 48.0 KHz
Compression mode                        : Lossy
Stream size                              : 16.2 MiB (4%)
Language                                : English
Tagged date                              : UTC 2014-03-23 14:10:00


Added2015-08-04 18:52:45
Size405.35 MB (425,036,062 bytes)
Views7
Num files1 files
Pictures