Tyson Sportus - Jurassic Powers - SPT79

CategoryAsian
Download
You need to Login or Signup first.
DescriptionGeneral
Complete name                  : F:1080新建文件夹 (2)! ( NEW ) ! gay japan - [tyson sportus] Jurassic Powers [SPT79] (1 570 129 334).ogm
Format                        : Ogg
File size                      : 1.46 GiB
Duration                      : 1 h 54 min
Overall bit rate              : 1 822 kb/s

Video
ID                            : 0 (0x0)
Format                        : MPEG-4 Visual
Format settings, BVOP          : Yes
Format settings, QPel          : No
Format settings, GMC          : No warppoints
Format settings, Matrix        : Default (H.263)
Codec ID                      : DX50
Codec ID/Hint                  : DivX 5
Duration                      : 1 h 54 min
Bit rate                      : 1 549 kb/s
Width                          : 720 pixels
Height                        : 480 pixels
Display aspect ratio          : 3:2
Frame rate                    : 29.970 (29970/1000) FPS
Standard                      : NTSC
Color space                    : YUV
Chroma subsampling            : 4:2:0
Bit depth                      : 8 bits
Scan type                      : Progressive
Compression mode              : Lossy
Bits/(Pixel*Frame)            : 0.150
Stream size                    : 1.24 GiB (85%)
Writing library                : DivX 6.8.0 (UTC 2007-12-04)

Audio
ID                            : 1 (0x1)
Format                        : MPEG Audio
Format version                : Version 1
Format profile                : Layer 3
Codec ID                      : 55
Codec ID/Hint                  : MP3
Duration                      : 1 h 54 min
Bit rate mode                  : Constant
Bit rate                      : 192 kb/s
Channel(s)                    : 2 channels
Sampling rate                  : 48.0 kHz
Compression mode              : Lossy
Stream size                    : 158 MiB (11%)
Writing library                : LAME3.96.1

Menu
00:00:00.000                  : Chapter 1
00:05:00.000                  : Chapter 2
00:10:00.000                  : Chapter 3
00:15:00.000                  : Chapter 4
00:20:00.000                  : Chapter 5
00:25:00.000                  : Chapter 6
00:30:00.000                  : Chapter 7
00:35:00.000                  : Chapter 8
00:40:16.000                  : Chapter 9
00:45:16.000                  : Chapter 10
00:50:16.000                  : Chapter 11
00:55:16.000                  : Chapter 12
01:00:16.000                  : Chapter 13
01:04:12.000                  : Chapter 14
01:09:12.000                  : Chapter 15
01:14:12.000                  : Chapter 16
01:19:12.000                  : Chapter 17
01:24:12.000                  : Chapter 18
01:30:15.033                  : Chapter 19
01:35:15.033                  : Chapter 20
01:40:15.033                  : Chapter 21
01:45:15.033                  : Chapter 22
01:50:15.033                  : Chapter 23
01:52:34.033                  : Chapter 24

Added2016-08-28 04:34:29
Size1.46 GB (1,570,129,334 bytes)
Views153
Num files1 files
Pictures