GayAsianPiss: Eric, Albert and Oliver

CategoryInterracial
Download
You need to Login or Signup first.
DescriptionFiles:
ericalbertoliver1.mp4
ericalbertoliver2.mp4
ericalbertoliver3.mp4
ericalbertoliver4.mp4
        Thumbs & Screen Captures folder

Complete name: ericalbertoliver1.mp4
Format: MPEG-4
Format profile: Base Media
Codec ID: isom (isom/iso2/avc1/mp41)
File size: 68.5 MiB
Duration: 8mn 30s
Overall bit rate mode: Variable
Overall bit rate: 1 127 Kbps
Encoded date: UTC 1970-01-01 00:00:00
Tagged date: UTC 1970-01-01 00:00:00
Writing application: Lavf52.93.0

Video
ID: 1
Format: AVC
Format/Info: Advanced Video Codec
Format profile: High@L3.1
Format settings, CABAC: Yes
Format settings, ReFrames: 4 frames
Codec ID: avc1
Codec ID/Info: Advanced Video Coding
Duration: 8mn 30s
Bit rate: 1 000 Kbps
Width: 1 280 pixels
Height: 720 pixels
Display aspect ratio: 16:9
Frame rate mode: Constant
Frame rate: 29.970 (30000/1001) fps
Color space: YUV
Chroma subsampling: 4:2:0
Bit depth: 8 bits
Scan type: Progressive
Bits/(Pixel*Frame): 0.036
Stream size: 60.5 MiB (88%)
Writing library: x264 core 113 r1882 f6d0c95
Encoding settings: cabac=1 / ref=3 / deblock=1:0:0 / analyse=0x3:0x113 / me=hex / subme=7 / psy=1 / psy_rd=1.00:0.00 / mixed_ref=1 / me_range=16 / chroma_me=1 / trellis=1 / 8x8dct=1 / cqm=0 / deadzone=21,11 / fast_pskip=1 / chroma_qp_offset=-2 / threads=3 / sliced_threads=0 / nr=0 / decimate=1 / interlaced=0 / constrained_intra=0 / bframes=3 / b_pyramid=2 / b_adapt=1 / b_bias=0 / direct=1 / weightb=1 / open_gop=0 / weightp=2 / keyint=250 / keyint_min=25 / scenecut=40 / intra_refresh=0 / rc_lookahead=40 / rc=abr / mbtree=1 / bitrate=1000 / ratetol=1.0 / qcomp=0.60 / qpmin=10 / qpmax=51 / qpstep=4 / ip_ratio=1.41 / aq=1:1.00
Language: Thai
Encoded date: UTC 1970-01-01 00:00:00
Tagged date: UTC 1970-01-01 00:00:00

Audio
ID: 2
Format: AAC
Format/Info: Advanced Audio Codec
Format profile: LC
Codec ID: 40
Duration: 8mn 30s
Bit rate mode: Variable
Bit rate: 128 Kbps
Channel(s): 2 channels
Channel positions: Front: L R
Sampling rate: 44.1 KHz
Frame rate: 43.066 fps (1024 spf)
Compression mode: Lossy
Stream size: 7.78 MiB (11%)
Language: Thai
Encoded date: UTC 1970-01-01 00:00:00
Tagged date: UTC 1970-01-01 00:00:00


Added2016-01-20 00:57:08
Size280.85 MB (294,490,682 bytes)
Views19
Num files19 files
Pictures