RB - Tyler Johnson & Eddie Diaz

CategoryHunks
Download
You need to Login or Signup first.
DescriptionGeneral
Complete name              : RB - Tyler Johnson & Eddie Diaz.mp4
Format                      : MPEG-4
Format profile              : Base Media / Version 2
Codec ID                    : mp42 (isom)
File size                  : 545 MiB
Duration                    : 21mn 45s
Overall bit rate mode      : Variable
Overall bit rate            : 3 498 Kbps
Movie name                  : RandyBlue - Tyler Johnson and Eddie Diaz
Encoded date                : UTC 2011-01-23 13:29:50
Tagged date                : UTC 2011-01-23 13:29:50

Video
ID                          : 1
Format                      : AVC
Format/Info                : Advanced Video Codec
Format profile              : Main@L3.1
Format settings, CABAC      : Yes
Format settings, ReFrames  : 4 frames
Codec ID                    : avc1
Codec ID/Info              : Advanced Video Coding
Duration                    : 21mn 45s
Bit rate mode              : Variable
Bit rate                    : 3 400 Kbps
Maximum bit rate            : 6 800 Kbps
Width                      : 1 280 pixels
Height                      : 720 pixels
Display aspect ratio        : 16:9
Frame rate mode            : Constant
Frame rate                  : 29.970 (30000/1001) fps
Standard                    : NTSC
Color space                : YUV
Chroma subsampling          : 4:2:0
Bit depth                  : 8 bits
Scan type                  : Progressive
Bits/(Pixel*Frame)          : 0.123
Stream size                : 529 MiB (97%)
Language                    : English
Encoded date                : UTC 2011-01-23 13:29:50
Tagged date                : UTC 2011-01-23 13:29:50
Color range                : Limited

Audio
ID                          : 2
Format                      : AAC
Format/Info                : Advanced Audio Codec
Format profile              : LC
Codec ID                    : 40
Duration                    : 21mn 45s
Source duration            : 21mn 45s
Bit rate mode              : Variable
Bit rate                    : 93.6 Kbps
Maximum bit rate            : 127 Kbps
Channel(s)                  : 2 channels
Channel positions          : Front: L R
Sampling rate              : 44.1 KHz
Frame rate                  : 43.066 fps (1024 spf)
Compression mode            : Lossy
Stream size                : 14.6 MiB (3%)
Source stream size          : 14.6 MiB (3%)
Language                    : English
Encoded date                : UTC 2011-01-23 13:29:50
Tagged date                : UTC 2011-01-23 13:29:50
mdhd_Duration              : 1305844
Added2016-06-05 22:39:16
Size544.51 MB (570,962,181 bytes)
Views33
Num files1 files
Pictures