♺ Bacchus - BYP - Young Asian Hunks (avi)

CategoryAsian
Download
You need to Login or Signup first.
DescriptionOriginal upload: 2009-12-10 |

*HQ* - *Some BB* - *No Mask*

Ah so... you want to bust a nut in a young Oriental stud? These willing boy toys are ripe and ready to satisfy all of your Asian boy fantasies. (from the liner notes, I wouldn't write anything quite so tacky...)

You wouldn't know it from the cover (what were they THINKING???) but this video has a NUMBER of beautiful, very-young Thai "boys" getting it on (bareback in the first scene only).... making this a VERY HOT HIGH (Video Resolution/Detail) QUALITY video!!!

Please note the legal disclaimer contained within the video, as to age requirements. These models are ALL 18 years old, or older. BYP went to great lengths to confirm IDs prior to training and shooting. Thai men usually look considerably younger than their age, when compared to Westerners. That "look", not to mention their smooth dark skin, CUTE faces, minimal body hair, incredible bodies, complete LACK OF GUILT, when it comes to sexuality, all combine to make the Thai Man the worlds most attractive man, again, in my humble opinion.

I'm giving Birlynn Young Director credit here, since most of the videography has 100% of the earmarks of his usually fine work. I'm sure this is Bacchus repackaging of various eras of Birlynn Young's video scenes. It would be interesting if anyone recognizes any of the actors from a different studio... please add a comment here. Perhaps there could be another director involved in the couple of scenes featuring older Thais, but I still think this looks like Birlynn Young's work. Chances are, these were some extra video scenes he had laying around, and he sold them to Bacchus for some pocket money.

The only complaints I would make about BYP videos are that the lighting and coloring are inconsistant, he only uses a single camera for the shoot, and he doesn't zoom in to catch any details of the cum shot.

Naturally, bonus points are always gratefully accepted, sorely needed, and greatly appreciated!  ;P

Title: Young Asian Hunks

Year Released: 2008

Duration: 55 minutes

Country:  Thailand

Studio:  Bacchus (Originally BYP, see above)

Cast:  Gayson Duke, Gavin Cheer, Tiger, Steele Butts, Bees Lee, Allen Dixion, Allan Merge, Ezie Turns

Director:  Birlynn Young (see above)

KEYWORDS:  Age: Some Bareback, Barely Legal/Twinks/Young Meat,  Age: College Freshmen to Late 20s,  All Asian Cast,  Amateurs/First Timers,  Body Types: Gymnasts/Ripped/Swimmers,  Body Types: Lean/Slim/Wiry,  Body/Chest Hair: None (Hairless/Shaved/Smooth),  Cast's Looks: Average Looking/Everyday,  Cast's Looks: Chiseled Face/Handsome,  Cock Sizes: Average/Above Average,  Facial Hair: None (Clean Shaven),  Foreskin Play/Uncut Cocks,  Men in/of Asia,  Tattoos: Few/Moderate

GENRES:  Ethnic,  Foreign/International Cast,  Twinks

Technical Detail:
Complete name : Bacchus - BYP - Young Asian Hunks.avi
Format : AVI
Format/Info : Audio Video Interleave
File size : 789 MiB
Duration : 55mn 56s
Overall bit rate : 1 972 Kbps

Video  Format : MPEG-4 Visual
Format profile : Simple@L3
Format settings, BVOP : No
Format settings, QPel : No
Format settings, GMC : No warppoints
Format settings, Matrix : Default (H.263)
Codec ID : XVID
Codec ID/Hint : XviD
Duration : 55mn 56s
Bit rate : 1 798 Kbps
Width : 720 pixels
Height : 540 pixels
Display aspect ratio : 4/3
Frame rate : 29.970 fps
Resolution : 24 bits
Colorimetry : 4:2:0
Scan type : Progressive
Bits/(Pixel*Frame) : 0.154
Stream size : 719 MiB (91%)
Writing library : XviD 1.1.0 Beta2 (UTC 2005-04-04)

Audio  Format : MPEG Audio
Format version : Version 1
Format profile : Layer 3
Codec ID : 55
Codec ID/Hint : MP3
Duration : 55mn 56s
Bit rate mode : Constant
Bit rate : 160 Kbps
Channel(s) : 2 channels
Sampling rate : 48.0 KHz
Resolution : 16 bits
Stream size : 64.0 MiB (8%)
Alignment : Aligned on interleaves
Interleave, duration : 24 ms (0.72 video frame)
Writing library : LAME3.96.1
Added2014-09-28 11:32:09
Size789.02 MB (827,351,498 bytes)
Views3764
Num files1 files
Pictures