Cole Harvey and Luke Hass

CategoryAnal
Download
You need to Login or Signup first.
DescriptionFormat                                  : MPEG-4
Format profile                          : Base Media / Version 2
Codec ID                                : mp42
File size                                : 422 MiB
Duration                                : 28mn 45s
Overall bit rate mode                    : Variable
Overall bit rate                        : 2 052 Kbps
Encoded date                            : UTC 2012-02-10 21:17:35
Tagged date                              : UTC 2012-02-10 21:17:35

Video
ID                                      : 1
Format                                  : AVC
Format/Info                              : Advanced Video Codec
Format profile                          : High@L3.2
Format settings, CABAC                  : Yes
Format settings, ReFrames                : 5 frames
Format settings, GOP                    : M=4, N=120
Codec ID                                : avc1
Codec ID/Info                            : Advanced Video Coding
Duration                                : 28mn 45s
Bit rate                                : 1 954 Kbps
Width                                    : 950 pixels
Height                                  : 536 pixels
Display aspect ratio                    : 16:9
Frame rate mode                          : Constant
Frame rate                              : 29.970 fps
Color space                              : YUV
Chroma subsampling                      : 4:2:0
Bit depth                                : 8 bits
Scan type                                : Progressive
Scan order                              : Top Field First
Bits/(Pixel*Frame)                      : 0.128
Stream size                              : 402 MiB (95%)
Language                                : English
Encoded date                            : UTC 2012-02-10 21:17:35
Tagged date                              : UTC 2012-02-10 21:17:35
Color primaries                          : BT.709
Transfer characteristics                : BT.709
Matrix coefficients                      : BT.709
Color range                              : Limited

Audio
ID                                      : 2
Format                                  : AAC
Format/Info                              : Advanced Audio Codec
Format profile                          : LC
Codec ID                                : 40
Duration                                : 28mn 45s
Bit rate mode                            : Variable
Bit rate                                : 93.6 Kbps
Maximum bit rate                        : 146 Kbps
Channel(s)                              : 2 channels
Channel positions                        : Front: L R
Sampling rate                            : 44.1 KHz
Compression mode                        : Lossy
Stream size                              : 19.3 MiB (5%)
Language                                : English
Encoded date                            : UTC 2012-02-10 21:17:35
Tagged date                              : UTC 2012-02-10 21:17:35
mdhd_Duration                            : 1725219
Added2015-07-31 12:28:59
Size421.95 MB (442,450,874 bytes)
Views11
Num files1 files
Pictures