♺ Iron Horse - Daddy Rob's Adventures DVDrip

CategoryBears
Download
You need to Login or Signup first.
DescriptionOriginal upload: 2010-11-15 |
DVD Rip from original disc via Megui. Enjoy :)

========

While on duty, as a tough cop, whether it’s screwing, or sucking, or both, Daddy Rob gets enough for anyone to envy. Four scenes depicting hot men who want to make it with a masculine Daddy.

========

General
Complete name                    : F:\Iron.Horse.Daddy.Rob's.Adventures.1998.DVD.AAC.x264.Hui\VTS_01_1-muxed.mp4
Format                          : MPEG-4
Format profile                  : Base Media
Codec ID                        : isom
File size                        : 1.45 GiB
Duration                        : 1h 22mn
Overall bit rate                : 2 502 Kbps
Movie name                      : Daddy Rob's Adventures
Encoded date                    : 1998
Tagged date                      : UTC 2010-11-14 12:57:23
Cover                            : Yes

Video
ID                              : 1
Format                          : AVC
Format/Info                      : Advanced Video Codec
Format profile                  : High@L4.1
Format settings, CABAC          : Yes
Format settings, ReFrames        : 3 frames
Codec ID                        : avc1
Codec ID/Info                    : Advanced Video Coding
Duration                        : 1h 22mn
Bit rate mode                    : Variable
Bit rate                        : 2 242 Kbps
Maximum bit rate                : 4 734 Kbps
Width                            : 640 pixels
Height                          : 464 pixels
Display aspect ratio            : 1.379
Frame rate mode                  : Constant
Frame rate                      : 29.970 fps
Color space                      : YUV
Chroma subsampling              : 4:2:0
Bit depth                        : 8 bits
Scan type                        : Progressive
Bits/(Pixel*Frame)              : 0.252
Stream size                      : 1.30 GiB (90%)
Title                            : Imported with GPAC 0.4.6-DEV (internal rev. 5)
Writing library                  : x264 core 98 r1649 20cbe10
Encoding settings                : cabac=1 / ref=4 / deblock=1:0:0 / analyse=0x3:0x113 / me=hex / subme=7 / psy=1 / psy_rd=1.00:0.00 / mixed_ref=1 / me_range=16 / chroma_me=1 / trellis=1 / 8x8dct=1 / cqm=0 / deadzone=21,11 / fast_pskip=1 / chroma_qp_offset=-2 / threads=6 / sliced_threads=0 / slices=4 / nr=0 / decimate=1 / interlaced=0 / constrained_intra=0 / bframes=3 / b_pyramid=1 / b_adapt=1 / b_bias=0 / direct=1 / weightb=1 / weightp=0 / keyint=24 / keyint_min=2 / scenecut=40 / intra_refresh=0 / rc_lookahead=31 / rc=2pass / mbtree=1 / bitrate=2242 / ratetol=1.0 / qcomp=0.60 / qpmin=10 / qpmax=51 / qpstep=4 / cplxblur=20.0 / qblur=0.5 / vbv_maxrate=14000 / vbv_bufsize=14500 / ip_ratio=1.40 / aq=1:1.00 / nal_hrd=vbr
Encoded date                    : UTC 2010-11-13 12:12:31
Tagged date                      : UTC 2010-11-14 12:59:13
Color primaries                  : BT.709-5, BT.1361, IEC 61966-2-4, SMPTE RP177
Transfer characteristics        : BT.709-5, BT.1361
Matrix coefficients              : BT.709-5, BT.1361, IEC 61966-2-4 709, SMPTE RP177

Audio
ID                              : 2
Format                          : AAC
Format/Info                      : Advanced Audio Codec
Format version                  : Version 4
Format profile                  : LC
Format settings, SBR            : No
Codec ID                        : 40
Duration                        : 1h 22mn
Bit rate mode                    : Variable
Bit rate                        : 256 Kbps
Maximum bit rate                : 305 Kbps
Channel(s)                      : 2 channels
Channel positions                : Front: L R
Sampling rate                    : 48.0 KHz
Stream size                      : 152 MiB (10%)
Encoded date                    : UTC 2010-11-14 12:58:40
Tagged date                      : UTC 2010-11-14 12:59:13

Added2015-04-11 14:10:05
Size1.45 GB (1,557,580,795 bytes)
Views4140
Num files5 files
Pictures