JapanBoyz Shosei & Hisoka

CategoryAsian
Download
You need to Login or Signup first.
DescriptionA better version of JapanBoyz Sensual Swordplay with Shosei & Hisoka (Part 1)

Pairing these two boys together was a no-brainer; Japanboyz.com presents Shosei and Hisoka, two very passionate and sensual guys. The romantic duo enjoy lots of foreplay and oral stimulation, without a care about anything else. The sword carrier is Shosei and the other, Hisoka. Watch and savor as they maneuver and explore; looks like they’re using their tongues for most of the “trip.” Shosei is on top, and by the time he gets to Hisoka’s cock, it is in full measure. Hell, looks like they’re both serious about this “swordplay” as each has a sizable weapon. Rolling Shosei over, Hisoka takes his turn on top. The kissing and nipple play is intoxicating; a slow, lovemaking session is at hand. As they 69 one another, the room goes quiet, but for the sensual slurping of cock. Checking with his partner, looks like Shosei will get to use his “sword” inside Hisoka; lucky boys. It takes a bit and several positions, but I’m sure these two are far from done. One Japanese saying is that, “a man in love mistakes a pimple for a dimple.” In this case, I’m sure Shosei will use both Hisoka’s “outtie and innie.”

Duration: 00:21:24

Video
Format: AVC
Format settings, ReFrames: 2 frames
Codec ID/Info : Advanced Video Coding
Bit rate mode: Variable
Bit rate: 4 502 Kbps
Maximum bit rate: 5 000 Kbps
Display aspect ratio: 1280x720 (16:9)
Frame rate mode: Constant
Frame rate: 30.000 fps
Color space: YUV
Chroma subsampling: 4:2:0
Bit depth: 8 bits
Scan type: Progressive
Bits/(Pixel*Frame): 0.163
Stream size: 690 MiB (96%)

Audio
Format: AAC
Format profile: LC
Bit rate mode: Constant
Bit rate: 192 Kbps
Channel(s): 2 channels
Sampling rate: 48.0 KHz
Compression mode: Lossy
Stream size: 29.5 MiB (4%)

JapanBoyz Sensual Swordplay (Part 1):
https://www.gaytorrent.ru/details.php?id=bb60b33c912df855c6a5798f0c7fe864b4006d51d4eeb723

JapanBoyz Sensual Swordplay (Part 2):
https://www.gaytorrent.ru/details.php?id=8c873104a335f2fac6a5798f0c7fe8646d3062d37882a2a8
Added2015-05-10 05:11:27
Size719.70 MB (754,659,586 bytes)
Views10
Num files1 files
Pictures