[MEN] [Gods of MEN] Good Morning Love [Denis Vega and Flex] [1080p]

CategoryHunks
Download
You need to Login or Signup first.
Description[MEN] [Gods of MEN] Good Morning Love [Denis Vega and Flex] [1080p]

Media Info.

Format                                  : MPEG-4
Format profile                          : Base Media
Codec ID                                : isom
File size                                : 2.27 GiB
Duration                                : 30mn 46s
Overall bit rate                        : 10.6 Mbps
Writing application                      : Lavf55.3.100

Video
ID                                      : 1
Format                                  : AVC
Format/Info                              : Advanced Video Codec
Format profile                          : High@L4.1
Format settings, CABAC                  : Yes
Format settings, ReFrames                : 5 frames
Codec ID                                : avc1
Codec ID/Info                            : Advanced Video Coding
Duration                                : 30mn 46s
Bit rate                                : 10 000 Kbps
Width                                    : 1 920 pixels
Height                                  : 1 080 pixels
Display aspect ratio                    : 16:9
Frame rate mode                          : Constant
Frame rate                              : 29.970 fps
Color space                              : YUV
Chroma subsampling                      : 4:2:0
Bit depth                                : 8 bits
Scan type                                : Progressive
Bits/(Pixel*Frame)                      : 0.161
Stream size                              : 2.15 GiB (95%)
Writing library                          : x264 core 132 r2309 3b1f1f7
Encoding settings                        : cabac=1 / ref=5 / deblock=1:0:0 / analyse=0x3:0x113 / me=umh / subme=8 / psy=1 / psy_rd=1.00:0.00 / mixed_ref=1 / me_range=16 / chroma_me=1 / trellis=1 / 8x8dct=1 / cqm=0 / deadzone=21,11 / fast_pskip=1 / chroma_qp_offset=-2 / threads=24 / lookahead_threads=4 / sliced_threads=0 / nr=0 / decimate=1 / interlaced=0 / bluray_compat=0 / constrained_intra=0 / bframes=3 / b_pyramid=2 / b_adapt=2 / b_bias=0 / direct=3 / weightb=1 / open_gop=0 / weightp=2 / keyint=60 / keyint_min=6 / scenecut=40 / intra_refresh=0 / rc_lookahead=50 / rc=abr / mbtree=1 / bitrate=10000 / ratetol=1.0 / qcomp=0.60 / qpmin=0 / qpmax=69 / qpstep=4 / ip_ratio=1.40 / aq=1:1.00
Tagged date                              : UTC 2014-12-13 01:29:17

Audio
ID                                      : 2
Format                                  : AAC
Format/Info                              : Advanced Audio Codec
Format profile                          : LC
Codec ID                                : 40
Duration                                : 30mn 46s
Duration_LastFrame                      : -12ms
Bit rate mode                            : Constant
Bit rate                                : 128 Kbps
Channel(s)                              : 2 channels
Channel positions                        : Front: L R
Sampling rate                            : 48.0 KHz
Compression mode                        : Lossy
Stream size                              : 28.2 MiB (1%)
Tagged date                              : UTC 2014-12-13 01:29:17

Other #1
ID                                      : 65536
Type                                    : Hint
Format                                  : RTP
Codec ID                                : rtp
Duration                                : 30mn 46s
Encoded date                            : UTC 2014-12-13 01:29:00
Tagged date                              : UTC 2014-12-13 01:29:17

Other #2
ID                                      : 65537
Type                                    : Hint
Format                                  : RTP
Codec ID                                : rtp
Duration                                : 30mn 46s
Encoded date                            : UTC 2014-12-13 01:29:16
Tagged date                              : UTC 2014-12-13 01:29:17
Bit rate mode                            : VBR


Added2015-02-22 10:19:29
Size2.27 GB (2,438,957,296 bytes)
Views18
Num files1 files
Pictures