80Gays Jay, Ron, and Andrew

CategoryBlack
Download
You need to Login or Signup first.
DescriptionFour Files:
jayronyandrew1_large.mp4,
jayronyandrew2_large.mp4,
jayronyandrew3_large.mp4,
jayronyandrew4_large.mp4.

Complete name: jayronyandrew1_large.mp4
Format: MPEG-4
Format profile: Base Media / Version 2
Codec ID: mp42 (mp42/isom)
File size: 216 MiB
Duration: 8mn 25s
Overall bit rate mode: Variable
Overall bit rate: 3 589 Kbps
Encoded date: UTC 2012-10-21 17:28:23
Tagged date: UTC 2012-10-21 17:28:23

Video
ID: 2
Format: AVC
Format/Info: Advanced Video Codec
Format profile: High@L4
Format settings, CABAC: Yes
Format settings, ReFrames: 2 frames
Muxing mode: Container profile=Baseline@3.1
Codec ID: avc1
Codec ID/Info: Advanced Video Coding
Duration: 8mn 25s
Bit rate mode: Variable
Bit rate: 3 455 Kbps
Maximum bit rate: 4 000 Kbps
Width: 1 280 pixels
Height: 720 pixels
Display aspect ratio: 16:9
Frame rate mode: Constant
Frame rate: 23.976 (24000/1001) fps
Color space: YUV
Chroma subsampling: 4:2:0
Bit depth: 8 bits
Scan type: Progressive
Bits/(Pixel*Frame): 0.156
Stream size: 208 MiB (96%)
Language: English
Encoded date: UTC 2012-10-21 17:28:23
Tagged date: UTC 2012-10-21 05:38:10

Audio
ID: 1
Format: AAC
Format/Info: Advanced Audio Codec
Format profile: LC
Codec ID: 40
Duration: 8mn 25s
Bit rate mode: Constant
Bit rate: 128 Kbps
Channel(s): 2 channels
Channel positions: Front: L R
Sampling rate: 48.0 KHz
Frame rate: 46.875 fps (1024 spf)
Compression mode: Lossy
Stream size: 7.71 MiB (4%)
Language: English
Encoded date: UTC 2012-10-21 17:28:23
Tagged date: UTC 2012-10-21 05:38:10
Added2016-01-19 17:43:56
Size884.96 MB (927,953,050 bytes)
Views9
Num files23 files
Pictures