Canadian Bodybuilder FullFrontalNude Kevin Delorme aka Cedric Doyon Solo

CategoryHunks
Download
You need to Login or Signup first.
DescriptionHere is a FULL FRONTAL NUDITY clip of Cedric Doyon, he is called Kevin Delorme here

This is a 04:19 Minute long clip. According to markwolff.com that is the whole thing, but i think there must be a longer version around. Who would only produce such a short one?

If anyone knows the source or happens to have the loarger one, please post.



Format                      : Flash Video
File size                  : 98.0 MiB
Duration                    : 4mn 19s
Overall bit rate            : 3 166 Kbps
Encoded date                : Tue Sep 20 05:46:54 2011
Writing application        : Sorenson Squeeze

Video
Format                      : Sorenson Spark
Codec ID                    : 2
Duration                    : 4mn 19s
Bit rate                    : 3 000 Kbps
Width                      : 720 pixels
Height                      : 404 pixels
Display aspect ratio        : 16:9
Frame rate mode            : Constant
Frame rate                  : 30.000 fps
Bit depth                  : 8 bits
Bits/(Pixel*Frame)          : 0.344
Stream size                : 92.8 MiB (95%)

Audio
Format                      : MPEG Audio
Format version              : Version 1
Format profile              : Layer 3
Mode                        : Joint stereo
Mode extension              : MS Stereo
Codec ID                    : 2
Codec ID/Hint              : MP3
Duration                    : 4mn 19s
Bit rate mode              : Constant
Bit rate                    : 112 Kbps
Channel(s)                  : 2 channels
Sampling rate              : 44.1 KHz
Compression mode            : Lossy
Stream size                : 3.47 MiB (4%)

Added2015-03-07 20:41:47
Size97.98 MB (102,735,654 bytes)
Views31
Num files1 files
Pictures