♺ PrivateBoyMovie - Bon - Thai Twink Bareback

CategoryAsian
Download
You need to Login or Signup first.
DescriptionOriginal upload: 2010-07-04 |

GoGoBoy Bon dances his way into a full blown bareback fuck session, with his bright cherry-red cockhead spewing cum galore, just before getting his ass COVERED in cum! 5stars !!
-----------------------------------
I stumbled across this High Quality PrivateBoyMovie.com movie quite by accident, but what a wonderful surprise! I haven't seen this video before on the torrent sites (although I could have missed it). Cool thing about THIS movie is that it appears to have been made in the earlier days of PrivateBoyMovie, in as the participating "Cameraman" seems in better shape, and less... ummmm.... bizzare, for lack of a better term, the scene is bareback, and there is a particularly relaxed atmosphere to this video.

In fact, the movie starts with Go-Go Boy Bon just dancing (while still wearing his typical Moneyboy GoGoboy white briefs) through an entire song, and through much of a second song, before his dancing turns to naked "posing".

Bon has one of those rare delightfully bright cherry-red cock heads (see picture above!) that are so delightful to see, and I could only imagine, to taste. During one of the scenes we can see a clear drop of pre-cum getting ready to drip off that cherry-bonbon.

It seems as though Bon really enjoys getting fucked strongly by Cameraman, staying quite hard throughout, and even cumming, at the end, while being fucked!

Honestly, this particular video rates at the very TOP of my list for PrivateBoyMovies. Unless you're into more intense fetish stuff, I have to say that for PrivateBoyMovie, this is about as good as it gets, and I'm happy to share it with you.

This movie is no longer featured on the PrivateBoyMovie web site.

Converted from the original .wmv format to the .avi format. Edited to eliminate the "End of Part 1" etc. slugs, then decompressed to a whopping 52 GB, then re-encoded (and sharpened the video just a bit), using the Xvid codec in 2-pass mode, first to detect motion, then the second time, to utilize Variable Bit Rate Xvid Encoding (based on detail and motion), for the most efficient Video Compression, achieving a uniform crisp look of high quality; PLUS MP3 audio, resulting in the most reasonable file size posible, considering the quality. This video has a Gspot Qf (Quality Factor) of .267, for High Quality, very near-DVD quality. Enjoy!

Any bonus points that you can afford to grant me for my efforts would be greatly appreciated!
In as I'm usually downloading DVDs to convert, process, and perhaps color correct, to offer here, I struggle to maintain my UL/DL ratio; and your gift would certainly help me, in this regard. Thanks!
----------------------------------
Studio: PrivateBoyMovies.com
Title: Bon
Released: unknown
Duration: 33 minutes
Staring: Bon and the Cameraman
----------------------------------
Multimedia Analysis Box of:  [PrivateBoyMovie] Bon.avi
General:
Complete name : [PrivateBoyMovie] Bon.avi
Format : AVI
Format/Info : Audio Video Interleave
File size : 594 MiB
Duration : 32mn 42s
Overall bit rate : 2 538 Kbps
Director : created.with.SUPER(C).v2010.bld.38
Writing application : VirtualDubMod 1.5.10.2 (build 2542/release)
Writing library : VirtualDubMod build 2542/release

Video  ID : 0
Format : MPEG-4 Visual
Format profile : Advanced Simple@L5
Format settings, BVOP : Yes
Format settings, QPel : No
Format settings, GMC : No warppoints
Format settings, Matrix : Default (MPEG)
Muxing mode : Packed bitstream
Codec ID : XVID
Codec ID/Hint : XviD
Duration : 32mn 42s
Bit rate : 2 401 Kbps
Width : 800 pixels
Height : 450 pixels
Display aspect ratio : 16:9
Frame rate : 25.000 fps
Resolution : 8 bits
Colorimetry : 4:2:0
Scan type : Progressive
Bits/(Pixel*Frame) : 0.267
Stream size : 562 MiB (95%)
Writing library : XviD 1.2.1 (UTC 2008-12-04)

Audio  ID : 1
Format : MPEG Audio
Format version : Version 1
Format profile : Layer 3
Mode : Joint stereo
Format_Settings_ModeExtension : MS Stereo
Codec ID : 55
Codec ID/Hint : MP3
Duration : 32mn 42s
Bit rate mode : Constant
Bit rate : 128 Kbps
Channel(s) : 2 channels
Sampling rate : 44.1 KHz
Stream size : 29.9 MiB (5%)
Alignment : Split accross interleaves
Interleave, duration : 40 ms (1.00 video frame)
Interleave, preload duration : 500 ms
Writing library : LAME3.98.2
Added2015-04-04 10:37:05
Size594.66 MB (623,544,991 bytes)
Views3278
Num files3 files
Pictures