♺ OTB Video - Starboys - Juan Carlos & Wilfrido

CategoryYoungblood
Download
You need to Login or Signup first.
DescriptionOriginal upload: 2010-01-25 |
OTB's premier model, Juan Carlos, gets down and nasty with dedicated bottom Wilfrido, in this Starboys Bareback Pack scene.

Their half-hour-long romp in bed together covers enough creative sexual positions to fill a gay Kama Sutra book!

Eventually, they wrap it up with each of them giving their partner an ABUNDANT cum facial... Juan cums first, and actually shoots OVER Wilfrido's head, then all over his face and mouth. Naturally, Wilfrido laps it up, and snowballs awhile with Juan.

Not to be outdone, Wilfrido proceeds to have one of those seemingly ENDLESS shooting orgasms... squirting, squirting, and then squirting some MORE, all over Alfredo's face and mouth. Alfredo seems to think WIlfrido has finally stopped shooting (he hasn't) and gobbles up his cock, while he's still shooting!

An amazing cum scene, to be sure, and illustrative of just ONE of the many positive results of having your prostate milked... endlessly... by a huge Latino cock. It's GOOD to be the bottom!!!

12 of the pictures above (the "Model Profile" and trailing 5 OTB publicity photos, for both stars) are from the OTB Fan Club section of OTBVideo.com. (YES, I AM a registered FAN MEMBER of OTB.)

Naturally, bonus points would be greatly appreciated, and are sorely needed... Thanks!
_______________________________________________________
My Tribute to OTB and STARboys: 
-----------------------------------------------------------------------------------
What IS it about OTB videos, making them consistently the BEST and MOST WATCHABLE porn available??? Here would be my short list of OTB successes:

1) HOT and HANDSOME LATINO models, who are highly enthusiastic and energized throughout the shoot, consistently staying hard, even while getting fucked HARD!

2) Models who are unabashed about loving to guzzle cum, unlike ANY other studio I can think of!

3) The scenes are shot in natural settings, often outdoors, with models that are clearly comfortable with the setting, the crew, and each other, and perform tirelessly, finding various new innovative ways to pleasure themselves and their partner.

4) Flawless production techniques... flawless locations and photography, lighting, all other aspects of production and post-production editing.

In short... OTB ROCKS!!!! (In my humble opinion, at least!)
-----------------------------------------------------------------

I converted this video to the .avi format from the original Windows Media Video format file, at a very high bit rate, to reduce some of the compression artifacts evident in the original. I think the results were great! See for yourself!

Detailed Analysis of:  OTB-Starboys - Juan Carlos & Wilfrido.avi

General 
Complete name : OTB-Starboys - Juan Carlos & Wilfrido.avi
Format : AVI
Format/Info : Audio Video Interleave
File size : 714 MiB
Duration : 31mn 27s
Overall bit rate : 3174 Kbps
Director : created.with.SUPER(C).v2010.bld.37
Writing application : SUPER(C) - by eRightSoft

Video  ID : 0
Format : MPEG-4 Visual
Format profile : Simple@L1
Format settings, BVOP : No
Format settings, QPel : No
Format settings, GMC : No warppoints
Format settings, Matrix : Default (H.263)
Codec ID : DX50
Codec ID/Hint : DivX 5
Duration : 31mn 27s
Bit rate : 2969 Kbps
Width : 720 pixels
Height : 480 pixels
Display aspect ratio : 16:9
Frame rate : 29.970 fps
Standard : NTSC
Resolution : 8 bits
Colorimetry : 4:2:0
Scan type : Progressive
Bits/(Pixel*Frame) : 0.287
Stream size : 668 MiB (94%)
Writing library : SUPER(C) 

Audio  ID : 1
Format : MPEG Audio
Format version : Version 1
Format profile : Layer 3
Codec ID : 55
Codec ID/Hint : MP3
Duration : 31mn 27s
Bit rate mode : Constant
Bit rate : 192 Kbps
Channel(s) : 2 channels
Sampling rate : 44.1 KHz
Stream size : 43.2 MiB (6%)
Alignment : Aligned on interleaves
Interleave, duration : 26 ms (0.78 video frame)
Interleave, preload duration : 522 ms
Writing library : LAME3.97

Added2014-08-19 20:42:06
Size714.29 MB (748,984,810 bytes)
Views2376
Num files1 files
Pictures