Taken down by DMCA request

KB - Tomas Friedel & Radim Hajek

CategoryHunks
Download
You need to Login or Signup first.
DescriptionGeneral
Complete name              : KB - Tomas Friedel & Radim Hajek.mp4
Format                      : MPEG-4
Format profile              : Base Media / Version 2
Codec ID                    : mp42 (isom)
File size                  : 625 MiB
Duration                    : 14mn 12s
Overall bit rate mode      : Variable
Overall bit rate            : 6 158 Kbps
Encoded date                : UTC 2014-07-02 20:41:15
Tagged date                : UTC 2014-07-02 20:41:15

Video
ID                          : 1
Format                      : AVC
Format/Info                : Advanced Video Codec
Format profile              : High@L4
Format settings, CABAC      : No
Format settings, ReFrames  : 3 frames
Format settings, GOP        : M=3, N=50
Codec ID                    : avc1
Codec ID/Info              : Advanced Video Coding
Duration                    : 14mn 12s
Bit rate mode              : Constant
Bit rate                    : 6 000 Kbps
Width                      : 1 920 pixels
Height                      : 1 080 pixels
Display aspect ratio        : 16:9
Frame rate mode            : Constant
Frame rate                  : 25.000 fps
Standard                    : PAL
Color space                : YUV
Chroma subsampling          : 4:2:0
Bit depth                  : 8 bits
Scan type                  : Progressive
Bits/(Pixel*Frame)          : 0.116
Stream size                : 609 MiB (97%)
Language                    : English
Encoded date                : UTC 2014-07-02 20:41:15
Tagged date                : UTC 2014-07-02 20:41:15
Color range                : Limited
Color primaries            : BT.709
Transfer characteristics    : BT.709
Matrix coefficients        : BT.709

Audio
ID                          : 2
Format                      : AAC
Format/Info                : Advanced Audio Codec
Format profile              : LC
Codec ID                    : 40
Duration                    : 14mn 12s
Bit rate mode              : Variable
Bit rate                    : 159 Kbps
Maximum bit rate            : 192 Kbps
Channel(s)                  : 2 channels
Channel positions          : Front: L R
Sampling rate              : 16.0 KHz
Frame rate                  : 15.625 fps (1024 spf)
Compression mode            : Lossy
Stream size                : 16.2 MiB (3%)
Language                    : English
Encoded date                : UTC 2014-07-02 20:41:15
Tagged date                : UTC 2014-07-02 20:41:15
Added2016-06-03 05:14:41
Size625.49 MB (655,876,906 bytes)
Views9
Num files1 files
Pictures