Taken down by DMCA request

Coming Home - Remastered from DVD - Romantic Bareback Boyfriends

CategoryBareback
Download
You need to Login or Signup first.
DescriptionJessie Montgomery is homeward bound after being kicked out of his Aunt's house. Childhood friend Jacob Dixon meets his blond buddy at the train station for an emotional reunion but when Jessie starts brooding at dinner Jacob tries to find out what's wrong. Jessie is harboring a secret that he fears will make his best friend reject him but little does he know, Jacob has a few secrets of his own...

Resolution: 853w x 480h (after the 16:9 DAR (Display Aspect Ratio) setting corrects the actual 720w x 480h video data)
Released: October 10, 2013
Duration: 28 minutes, 14 seconds

Models: Jacob Dixon, Jessie Montgomery

Themes: Gay Porn, Twink, Cum Shots, Brunette, Blowjob, Blonds, Big Dick, Bareback, Anal Sex

Bonus Points Appreciated!! Thank You!!
=================Technical Notes=============================
As often the case when studios go for a theme, or a look, they go overboard, and generally damage the video (and the enjoyment from watching it) in the process.

Such was the case with this video, which was scene 1 from the Bareback Twink Tales DVD.

The lighting effect was supposed to make the scene dark and romantic, and they just went too far, IMHO... (See the Before & After Picture)

I left ALL the non-sex scenes alone, even tho I was tempted there too, since they had extended the "look" into these scenes too, but I thought it was rather a nice touch, and would give people a look at the theme-lighting used in this scene, before my remastering project.

VirtualDub filters used were: YAN Deinterlacer, a Red Channel setting of 89%, a Brightness boost of 4.7%, a hue setting of -5 degrees, a Saturation setting of 109%, an Intensity setting of a whopping 139%, and lastly, overall, a minor sharpness filter of 8 of 64.

Video Compression was achieved using the two-pass version of the Xvid codec, where the first pass recorded picture movement into a data file, and the second pass used this data to create a variable data bit rate, to achieve (in this case) a Bits/(Pixel*Frame) rate of 0.390.  Conventional wisdom is that video data rates resulting in a Qbits rates GREATER than 0.2 are undetectable by the human eye as being any better than 0.2.  Audio Compression was achieved using the MP3, LAME3.98.4 codec.

=================Technical Details=============================
[General] Complete name :Coming Home - Remastered from DVD.avi
Format : AVI
Format/Info : Audio Video Interleave
File size : 845 MiB
Duration : 28mn 14s
Overall bit rate : 4 184 Kbps
Writing library : VirtualDub build 32839/release

[Video] ID : 0
Format : MPEG-4 Visual
Format profile : Advanced Simple@L5
Format settings, BVOP : 2
Format settings, QPel : No
Format settings, GMC : No warppoints
Format settings, Matrix : Default (MPEG)
Muxing mode : Packed bitstream
Codec ID : XVID
Codec ID/Hint : XviD
Duration : 28mn 14s
Bit rate : 4 044 Kbps
Width : 720 pixels
Height : 480 pixels
Display aspect ratio : 16:9
Frame rate : 29.970 fps
Standard : NTSC
Color space : YUV
Chroma subsampling : 4:2:0
Bit depth : 8 bits
Scan type : Progressive
Compression mode : Lossy
Bits/(Pixel*Frame) : 0.390
Stream size : 817 MiB (97%)
Writing library : XviD 64

[Audio] ID : 1
Format : MPEG Audio
Format version : Version 1
Format profile : Layer 3
Mode : Joint stereo
Mode extension : MS Stereo
Codec ID : 55
Codec ID/Hint : MP3
Duration : 28mn 14s
Bit rate mode : Constant
Bit rate : 128 Kbps
Channel count : 2 channels
Sampling rate : 48.0 KHz
Compression mode : Lossy
Stream size : 25.9 MiB (3%)
Alignment : Split accross interleaves
Interleave, duration : 33 ms (1.00 video frame)
Interleave, preload duration : 500 ms
Writing library : LAME3.98.4

Added2014-06-22 18:59:43
Size845.23 MB (886,291,274 bytes)
Views2
Num files1 files
Pictures